Riddick: Criaturas de la noche (2000) OPEN MATTE Web-DL 1080p Latino

248 vistas
1 estrella2 estrellas3 estrellas4 estrellas5 estrellas (Ninguna valoración todavía)
Cargando...

Información de Riddick: Criaturas de la noche (2000) OPEN MATTE Web-DL 1080p Latino

Datos de la película

  • Calidad: WEBDL
  • Audio: Se especifica abajo de la Sinopsis
  • Subtitulos: Español Latino SRT - Ingles SRT
  • Resolución: 1920x1080p
  • Formato: MKV
  • Codec: H.264
  • Encoder: CinefiloCool
  • Mediainfo: Clic para Mostrar Datos Ver
  • Criaturas de la noche (2000) Theatrical OPEN MATTE Web 1080p Latino-CMHDD.mkv
    Format                      : Matroska
    Format version              : Version 4
    File size                   : 10.6 GiB
    Duration                    : 1 h 48 min
    Overall bit rate mode       : Variable
    Overall bit rate            : 14.0 Mb/s
    Movie name                  : Pitch Black (2000) CinemaniaHDD.Net
    Encoded date                : UTC 2020-08-30 21:32:05
    Writing application         : mkvmerge v46.0.0 ('No Deeper Escape') 64-bit
    Writing library             : libebml v1.3.10 + libmatroska v1.5.2
    Attachments                 : CINEMANIAHD.png

    Video
    ID                          : 1
    Format                      : AVC
    Format/Info                 : Advanced Video Codec
    Format profile              : High@L4
    Format settings             : CABAC / 4 Ref Frames
    Format settings, CABAC      : Yes
    Format settings, Reference  : 4 frames
    Codec ID                    : V_MPEG4/ISO/AVC
    Duration                    : 1 h 48 min
    Bit rate mode               : Variable
    Bit rate                    : 12.7 Mb/s
    Maximum bit rate            : 15.0 Mb/s
    Width                       : 1 920 pixels
    Height                      : 1 080 pixels
    Display aspect ratio        : 16:9
    Frame rate mode             : Constant
    Frame rate                  : 23.976 (24000/1001) FPS
    Color space                 : YUV
    Chroma subsampling          : 4:2:0
    Bit depth                   : 8 bits
    Scan type                   : Progressive
    Bits/(Pixel*Frame)          : 0.255
    Stream size                 : 9.61 GiB (91%)
    Title                       : Web Open Matte [CinemaniaHDD]
    Default                     : Yes
    Forced                      : Yes
    Color range                 : Limited
    Color primaries             : BT.709
    Transfer characteristics    : BT.709
    Matrix coefficients         : BT.709

    Audio #1
    ID                          : 2
    Format                      : AC-3
    Format/Info                 : Audio Coding 3
    Commercial name             : Dolby Digital
    Codec ID                    : A_AC3
    Duration                    : 1 h 48 min
    Bit rate mode               : Constant
    Bit rate                    : 640 kb/s
    Channel(s)                  : 6 channels
    Channel layout              : L R C LFE Ls Rs
    Sampling rate               : 48.0 kHz
    Frame rate                  : 31.250 FPS (1536 SPF)
    Compression mode            : Lossy
    Delay relative to video     : 10 s 242 ms
    Stream size                 : 496 MiB (5%)
    Title                       : Español Latino [CinemaniaHDD]
    Language                    : Spanish
    Service kind                : Complete Main
    Default                     : Yes
    Forced                      : Yes

    Audio #2
    ID                          : 3
    Format                      : E-AC-3
    Format/Info                 : Enhanced AC-3
    Commercial name             : Dolby Digital Plus
    Codec ID                    : A_EAC3
    Duration                    : 1 h 48 min
    Bit rate mode               : Constant
    Bit rate                    : 640 kb/s
    Channel(s)                  : 6 channels
    Channel layout              : L R C LFE Ls Rs
    Sampling rate               : 48.0 kHz
    Frame rate                  : 31.250 FPS (1536 SPF)
    Compression mode            : Lossy
    Stream size                 : 496 MiB (5%)
    Title                       : Ingles [CinemaniaHDD]
    Language                    : English
    Service kind                : Complete Main
    Default                     : No
    Forced                      : No

    Text #1
    ID                          : 4
    Format                      : UTF-8
    Codec ID                    : S_TEXT/UTF8
    Codec ID/Info               : UTF-8 Plain Text
    Duration                    : 1 h 46 min
    Bit rate                    : 0 b/s
    Count of elements           : 10
    Stream size                 : 250 Bytes (0%)
    Title                       : Forzados-SRT [CinemaniaHDD]
    Language                    : Spanish
    Default                     : Yes
    Forced                      : Yes

    Text #2
    ID                          : 5
    Format                      : UTF-8
    Codec ID                    : S_TEXT/UTF8
    Codec ID/Info               : UTF-8 Plain Text
    Duration                    : 1 h 46 min
    Bit rate                    : 29 b/s
    Count of elements           : 758
    Stream size                 : 22.9 KiB (0%)
    Title                       : Español-SRT [CinemaniaHDD]
    Language                    : English
    Default                     : No
    Forced                      : No

    Text #3
    ID                          : 6
    Format                      : UTF-8
    Codec ID                    : S_TEXT/UTF8
    Codec ID/Info               : UTF-8 Plain Text
    Duration                    : 1 h 40 min
    Bit rate                    : 43 b/s
    Count of elements           : 979
    Stream size                 : 32.4 KiB (0%)
    Title                       : Ingles-SRT [CinemaniaHDD]
    Language                    : English
    Default                     : No
    Forced                      : No

  • Peso: 10.6 GiB

Sinopsis

Descargar Riddick: Criaturas de la noche (2000) OPEN MATTE Web-DL 1080p Latino. Una nave especial lleva a bordo 39 pasajeros que se dirigen a New Mecca, una colonia en el espacio exterior. Pero durante el vuelo tiene una avería, debido a una tormenta de meteoritos, que hace que la nave tenga que aterrizar en un planeta perdido. Para más inri hay un prisionero extremadamente peligroso: el pasajero número 40 es Richard Riddick, un peligroso criminal que está siendo transportado a una prisión de máxima seguridad. Por culpa del aterrizaje de emergencia mueren 29 pasajeros, y Riddick aprovecha para escapar. Aislados de toda forma de vida en un planeta donde nunca se pone el sol y no hay agua, creen estar ante un verdadero problema. Pero se equivocan, ya que los verdaderos problemas todavía están por llegar, ya que cada 22 años tiene lugar un eclipse y con la oscuridad llegan unos extraños y letales seres que querrán acabar con ellos.

Audio Español Latino AC3 5.1 Bluray – Ingles EAC3 5.1 WebDL

Ficha técnica

Video trailer de la película

Enlaces de descarga

Rip de Bluray

Descargar Riddick: Criaturas de la noche (2000) OPEN MATTE Web-DL 1080p Latino




Aportes de DPeliculasHDmega la pass es:dpeliculashdmega.org Aportes de CinemaniaHD la pass es:cinemaniahdd.com

Películas relacionadas

Riddick: Criaturas de la noche (2000) OPEN MATTE Web-DL 1080p Latino pelicula full hd, Riddick: Criaturas de la noche (2000) OPEN MATTE Web-DL 1080p Latino mega latino, Riddick: Criaturas de la noche (2000) OPEN MATTE Web-DL 1080p Latino 4k latino, Riddick: Criaturas de la noche (2000) OPEN MATTE Web-DL 1080p Latino pelicula completa, Riddick: Criaturas de la noche (2000) OPEN MATTE Web-DL 1080p Latino descargar gratis, descargar Riddick: Criaturas de la noche (2000) OPEN MATTE Web-DL 1080p Latino pelicula latino, Riddick: Criaturas de la noche (2000) OPEN MATTE Web-DL 1080p Latino 1 link mega, Riddick: Criaturas de la noche (2000) OPEN MATTE Web-DL 1080p Latino 1 link google drive, Riddick: Criaturas de la noche (2000) OPEN MATTE Web-DL 1080p Latino hd 1080p latino.
Comentarios 0