Riddick: Criaturas de la noche (2000) REMASTERED Full HD 1080p latino

2.262 vistas
1 estrella2 estrellas3 estrellas4 estrellas5 estrellas (1 votos, promedio: 5,00 de 5)
Cargando...

Información de Riddick: Criaturas de la noche (2000) REMASTERED Full HD 1080p latino

Datos de la película

  • Calidad: Full 1080p
  • Audio: Español Latino DTS 5.1 BLURAY - Ingles DTS 5.1 BLURAY
  • Subtitulos: Español Latino PGS - Ingles PGS
  • Resolución: 1920x1080p
  • Formato: MKV
  • Codec: H.264
  • Encoder: CinefiloCool
  • Mediainfo: Clic para Mostrar Datos Ver
  • Criaturas de la noche (2000) Remaster TC Full HD 1080p Latino-CMHDD.mkv
    Format                      : Matroska
    Format version              : Version 4
    File size                   : 7.93 GiB
    Duration                    : 1 h 48 min
    Overall bit rate            : 10.5 Mb/s
    Movie name                  : Pitch Black (2000) CinemaniaHDD.Net
    Encoded date                : UTC 2020-08-30 20:13:25
    Writing application         : mkvmerge v46.0.0 ('No Deeper Escape') 64-bit
    Writing library             : libebml v1.3.10 + libmatroska v1.5.2
    Attachments                 : CINEMANIAHD.png

    Video
    ID                          : 1
    Format                      : AVC
    Format/Info                 : Advanced Video Codec
    Format profile              : High@L4.1
    Format settings             : CABAC / 4 Ref Frames
    Format settings, CABAC      : Yes
    Format settings, Reference  : 4 frames
    Codec ID                    : V_MPEG4/ISO/AVC
    Duration                    : 1 h 48 min
    Bit rate                    : 8 946 kb/s
    Width                       : 1 920 pixels
    Height                      : 1 080 pixels
    Display aspect ratio        : 16:9
    Frame rate mode             : Constant
    Frame rate                  : 24.000 FPS
    Color space                 : YUV
    Chroma subsampling          : 4:2:0
    Bit depth                   : 8 bits
    Scan type                   : Progressive
    Bits/(Pixel*Frame)          : 0.180
    Stream size                 : 6.75 GiB (85%)
    Title                       : Full HD1080p [CinemaniaHDD]
    Writing library             : x264 core 157 r2935 545de2f
    Encoding settings           : cabac=1 / ref=4 / deblock=1:0:0 / analyse=0x3:0x133 / me=tesa / subme=11 / psy=1 / psy_rd=1.00:0.00 / mixed_ref=1 / me_range=24 / chroma_me=1 / trellis=2 / 8x8dct=1 / cqm=0 / deadzone=21,11 / fast_pskip=0 / chroma_qp_offset=-2 / threads=24 / lookahead_threads=6 / sliced_threads=0 / nr=0 / decimate=1 / interlaced=0 / bluray_compat=0 / constrained_intra=0 / bframes=16 / b_pyramid=2 / b_adapt=2 / b_bias=0 / direct=3 / weightb=1 / open_gop=0 / weightp=2 / keyint=240 / keyint_min=24 / scenecut=40 / intra_refresh=0 / rc_lookahead=60 / rc=crf / mbtree=1 / crf=20.0 / qcomp=0.60 / qpmin=0 / qpmax=69 / qpstep=4 / vbv_maxrate=62500 / vbv_bufsize=78125 / crf_max=0.0 / nal_hrd=none / filler=0 / ip_ratio=1.40 / aq=1:1.00
    Default                     : Yes
    Forced                      : Yes
    Color range                 : Limited
    Color primaries             : BT.709
    Transfer characteristics    : BT.709
    Matrix coefficients         : BT.709

    Audio #1
    ID                          : 2
    Format                      : DTS
    Format/Info                 : Digital Theater Systems
    Codec ID                    : A_DTS
    Duration                    : 1 h 48 min
    Bit rate mode               : Constant
    Bit rate                    : 768 kb/s
    Channel(s)                  : 6 channels
    Channel layout              : C L R Ls Rs LFE
    Sampling rate               : 48.0 kHz
    Frame rate                  : 93.750 FPS (512 SPF)
    Bit depth                   : 24 bits
    Compression mode            : Lossy
    Stream size                 : 594 MiB (7%)
    Title                       : Español Latino [CinemaniaHDD]
    Language                    : Spanish
    Default                     : Yes
    Forced                      : No

    Audio #2
    ID                          : 3
    Format                      : DTS
    Format/Info                 : Digital Theater Systems
    Codec ID                    : A_DTS
    Duration                    : 1 h 48 min
    Bit rate mode               : Constant
    Bit rate                    : 768 kb/s
    Channel(s)                  : 6 channels
    Channel layout              : C L R Ls Rs LFE
    Sampling rate               : 48.0 kHz
    Frame rate                  : 93.750 FPS (512 SPF)
    Bit depth                   : 24 bits
    Compression mode            : Lossy
    Stream size                 : 594 MiB (7%)
    Title                       : Ingles [CinemaniaHDD]
    Language                    : English
    Default                     : No
    Forced                      : No

    Text #1
    ID                          : 4
    Format                      : PGS
    Muxing mode                 : zlib
    Codec ID                    : S_HDMV/PGS
    Codec ID/Info               : Picture based subtitle format used on BDs/HD-DVDs
    Duration                    : 1 h 40 min
    Bit rate                    : 19.0 kb/s
    Count of elements           : 1628
    Stream size                 : 13.7 MiB (0%)
    Title                       : Español-PGS [CinemaniaHDD]
    Language                    : Spanish
    Default                     : No
    Forced                      : No

    Text #2
    ID                          : 5
    ID in the original source m : 4608 (0x1200)
    Format                      : PGS
    Muxing mode                 : zlib
    Codec ID                    : S_HDMV/PGS
    Codec ID/Info               : Picture based subtitle format used on BDs/HD-DVDs
    Duration                    : 1 h 40 min
    Bit rate                    : 27.1 kb/s
    Count of elements           : 2140
    Stream size                 : 19.5 MiB (0%)
    Title                       : Ingles-PGS [CinemaniaHDD]
    Language                    : English
    Default                     : No
    Forced                      : No
    Original source medium      : Blu-ray

    Text #3
    ID                          : 6
    Format                      : UTF-8
    Codec ID                    : S_TEXT/UTF8
    Codec ID/Info               : UTF-8 Plain Text
    Duration                    : 1 h 46 min
    Bit rate                    : 0 b/s
    Count of elements           : 10
    Stream size                 : 250 Bytes (0%)
    Title                       : Forzados-SRT [CinemaniaHDD]
    Language                    : Spanish
    Default                     : Yes
    Forced                      : No

    Text #4
    ID                          : 7
    Format                      : UTF-8
    Codec ID                    : S_TEXT/UTF8
    Codec ID/Info               : UTF-8 Plain Text
    Duration                    : 1 h 46 min
    Bit rate                    : 29 b/s
    Count of elements           : 758
    Stream size                 : 22.9 KiB (0%)
    Title                       : Español-SRT [CinemaniaHDD]
    Language                    : Spanish
    Default                     : No
    Forced                      : No

    Menu
    00:00:00.000                : en:Chapter 01
    00:11:13.083                : en:Chapter 02
    00:18:01.250                : en:Chapter 03
    00:26:38.625                : en:Chapter 04
    00:35:36.375                : en:Chapter 05
    00:44:28.583                : en:Chapter 06
    00:52:34.083                : en:Chapter 07
    00:58:59.375                : en:Chapter 08
    01:08:38.583                : en:Chapter 09
    01:15:36.583                : en:Chapter 10
    01:29:57.000                : en:Chapter 11
    01:35:38.166                : en:Chapter 12

  • Peso: 7.93 GiB

Sinopsis

Descargar Riddick: Criaturas de la noche (2000) REMASTERED Full HD 1080p latino. Una nave especial lleva a bordo 39 pasajeros que se dirigen a New Mecca, una colonia en el espacio exterior. Pero durante el vuelo tiene una avería, debido a una tormenta de meteoritos, que hace que la nave tenga que aterrizar en un planeta perdido. Para más inri hay un prisionero extremadamente peligroso: el pasajero número 40 es Richard Riddick, un peligroso criminal que está siendo transportado a una prisión de máxima seguridad. Por culpa del aterrizaje de emergencia mueren 29 pasajeros, y Riddick aprovecha para escapar. Aislados de toda forma de vida en un planeta donde nunca se pone el sol y no hay agua, creen estar ante un verdadero problema. Pero se equivocan, ya que los verdaderos problemas todavía están por llegar, ya que cada 22 años tiene lugar un eclipse y con la oscuridad llegan unos extraños y letales seres que querrán acabar con ellos.

RESUBIDO. NUEVO RIP VERSION PLACEBO!

Ficha técnica

Video trailer de la película

Enlaces de descarga

Rip de Bluray

Descargar Riddick: Criaturas de la noche (2000) REMASTERED Full HD 1080p latino




Aportes de DPeliculasHDmega la pass es:dpeliculashdmega.org Aportes de CinemaniaHD la pass es:cinemaniahdd.com

Películas relacionadas

  • Hanna (2011) 1080p Latino

    Hanna (2011) 1080p Latino

    2011
    Hanna (2011) 1080p Latino

    0.0 1h 51m 2011

    Descargar Hanna (2011) 1080p Latino. Hanna tiene 16 años. Es brillante, curiosa y una devota hija. Excepcionalmente,...

    Director: Sheila Paige

    Género: Acción

    Actores: Vincent Montuel

  • Hanna (2011) Full HD 1080p Latino

    Hanna (2011) Full HD 1080p Latino

    2011
    Hanna (2011) Full HD 1080p Latino

    5.0 1h 51m 2011

    Descargar Hanna (2011) Full HD 1080p Latino. Hanna tiene 16 años. Es brillante, curiosa y una devota...

    Director: Sheila Paige

    Género: Acción

    Actores: Vincent Montuel

  • Hanna (2011) REMUX 1080p Latino

    Hanna (2011) REMUX 1080p Latino

    2011
    Hanna (2011) REMUX 1080p Latino

    5.0 1h 51m 2011

    Descargar Hanna (2011) REMUX 1080p Latino. Hanna tiene 16 años. Es brillante, curiosa y una devota hija....

    Director: Sheila Paige

    Género: Acción

    Actores: Vincent Montuel

  • Looper: Asesino Del Futuro (2012) 1080p Latino

    Looper: Asesino Del Futuro (2012) 1080p Latino

    2012
    Looper: Asesino Del Futuro (2012) 1080p Latino

    0.0 1h 58m 2012

    Descargar Looper: Asesino Del Futuro (2012) 1080p Latino. Como en 2072 los asesinatos están terminantemente...

    Director: Samuel W. Sullivan

    Género: Acción

    Actores: Xu Qing

Comentarios 2