Riddick: Criaturas de la noche (2000) 4K UHD HDR latino

358 vistas
1 estrella2 estrellas3 estrellas4 estrellas5 estrellas (Ninguna valoración todavía)
Cargando...

Información de Riddick: Criaturas de la noche (2000) 4K UHD HDR latino

Datos de la película

  • Calidad: 4K HDR
  • Audio: Español Latino DTS 5.1 BLURAY - Ingles DTS 5.1 BLURAY
  • Subtitulos: Español Latino PGS - Ingles PGS
  • Resolución: 3840x1634p
  • Formato: MKV
  • Codec: HEVC
  • Encoder: CinefiloCool
  • Mediainfo: Clic para Mostrar Datos Ver
  • Criaturas de la noche (2000) UHD HDR Latino-CMHDD.mkv
    Format                      : Matroska
    Format version              : Version 4
    File size                   : 32.3 GiB
    Duration                    : 1 h 48 min
    Overall bit rate            : 42.8 Mb/s
    Movie name                  : Pitch Black (2000) CinemaniaHDD.Net
    Encoded date                : UTC 2020-08-30 21:05:39
    Writing application         : mkvmerge v46.0.0 ('No Deeper Escape') 64-bit
    Writing library             : libebml v1.3.10 + libmatroska v1.5.2
    Attachments                 : CINEMANIAHD.png

    Video
    ID                          : 1
    Format                      : HEVC
    Format/Info                 : High Efficiency Video Coding
    Format profile              : Main 10@L5.1@High
    HDR format                  : SMPTE ST 2086, HDR10 compatible
    Codec ID                    : V_MPEGH/ISO/HEVC
    Duration                    : 1 h 48 min
    Bit rate                    : 41.3 Mb/s
    Width                       : 3 840 pixels
    Height                      : 1 634 pixels
    Display aspect ratio        : 2.35:1
    Frame rate mode             : Constant
    Frame rate                  : 24.000 FPS
    Color space                 : YUV
    Chroma subsampling          : 4:2:0 (Type 2)
    Bit depth                   : 10 bits
    Bits/(Pixel*Frame)          : 0.274
    Stream size                 : 31.2 GiB (96%)
    Title                       : 2160p HDR [Bluray]
    Writing library             : x265 3.4+1-7b120308dc64:[Windows][MSVC 1900][64 bit] 10bit
    Encoding settings           : cpuid=1111039 / frame-threads=5 / numa-pools=36 / wpp / no-pmode / no-pme / no-psnr / no-ssim / log-level=2 / input-csp=1 / input-res=3840x1634 / interlace=0 / total-frames=155668 / level-idc=51 / high-tier=1 / uhd-bd=0 / ref=4 / no-allow-non-conformance / repeat-headers / annexb / aud / hrd / info / hash=0 / no-temporal-layers / no-open-gop / min-keyint=24 / keyint=250 / gop-lookahead=0 / bframes=4 / b-adapt=2 / b-pyramid / bframe-bias=0 / rc-lookahead=25 / lookahead-slices=4 / scenecut=40 / hist-scenecut=0 / radl=0 / no-splice / no-intra-refresh / ctu=64 / min-cu-size=8 / rect / no-amp / max-tu-size=32 / tu-inter-depth=1 / tu-intra-depth=1 / limit-tu=0 / rdoq-level=2 / dynamic-rd=0.00 / no-ssim-rd / signhide / no-tskip / nr-intra=0 / nr-inter=0 / no-constrained-intra / no-strong-intra-smoothing / max-merge=3 / limit-refs=3 / limit-modes / me=3 / subme=3 / merange=57 / temporal-mvp / no-frame-dup / no-hme / weightp / no-weightb / no-analyze-src-pics / deblock=-3:-3 / no-sao / no-sao-non-deblock / rd=4 / selective-sao=0 / no-early-skip / rskip / no-fast-intra / no-tskip-fast / no-cu-lossless / no-b-intra / no-splitrd-skip / rdpenalty=0 / psy-rd=2.00 / psy-rdoq=1.00 / no-rd-refine / no-lossless / cbqpoffs=0 / crqpoffs=0 / rc=crf / crf=15.5 / qcomp=0.60 / qpstep=4 / stats-write=0 / stats-read=0 / vbv-maxrate=160000 / vbv-bufsize=160000 / vbv-init=0.9 / crf-max=0.0 / crf-min=0.0 / ipratio=1.40 / pbratio=1.30 / aq-mode=2 / aq-strength=0.80 / cutree / zone-count=0 / no-strict-cbr / qg-size=32 / no-rc-grain / qpmax=69 / qpmin=0 / no-const-vbv / sar=1 / overscan=0 / videoformat=5 / range=0 / colorprim=9 / transfer=16 / colormatrix=9 / chromaloc=1 / chromaloc-top=2 / chromaloc-bottom=2 / display-window=0 / master-display=G(8500,39850)B(6550,2300)R(35400,14600)WP(15635,16450)L(10000000,1) / cll=0,0 / min-luma=0 / max-luma=1023 / log2-max-poc-lsb=8 / vui-timing-info / vui-hrd-info / slices=1 / no-opt-qp-pps / no-opt-ref-list-length-pps / no-multi-pass-opt-rps / scenecut-bias=0.05 / hist-threshold=0.01 / no-opt-cu-delta-qp / no-aq-motion / hdr10 / hdr10-opt / no-dhdr10-opt / no-idr-recovery-sei / analysis-reuse-level=0 / analysis-save-reuse-level=0 / analysis-load-reuse-level=0 / scale-factor=0 / refine-intra=0 / refine-inter=0 / refine-mv=1 / refine-ctu-distortion=0 / no-limit-sao / ctu-info=0 / no-lowpass-dct / refine-analysis-type=0 / copy-pic=1 / max-ausize-factor=1.0 / no-dynamic-refine / no-single-sei / no-hevc-aq / no-svt / no-field / qp-adaptation-range=1.00 / no-scenecut-aware-qpconformance-window-offsets / right=0 / bottom=0 / decoder-max-rate=0
    Default                     : Yes
    Forced                      : No
    Color range                 : Limited
    Color primaries             : BT.2020
    Transfer characteristics    : PQ
    Matrix coefficients         : BT.2020 non-constant
    Mastering display color pri : BT.2020
    Mastering display luminance : min: 0.0001 cd/m2, max: 1000 cd/m2

    Audio #1
    ID                          : 2
    Format                      : DTS
    Format/Info                 : Digital Theater Systems
    Codec ID                    : A_DTS
    Duration                    : 1 h 48 min
    Bit rate mode               : Constant
    Bit rate                    : 768 kb/s
    Channel(s)                  : 6 channels
    Channel layout              : C L R Ls Rs LFE
    Sampling rate               : 48.0 kHz
    Frame rate                  : 93.750 FPS (512 SPF)
    Bit depth                   : 24 bits
    Compression mode            : Lossy
    Stream size                 : 594 MiB (2%)
    Title                       : Español Latino [CinemaniaHDD]
    Language                    : Spanish
    Default                     : Yes
    Forced                      : No

    Audio #2
    ID                          : 3
    Format                      : DTS
    Format/Info                 : Digital Theater Systems
    Codec ID                    : A_DTS
    Duration                    : 1 h 48 min
    Bit rate mode               : Constant
    Bit rate                    : 768 kb/s
    Channel(s)                  : 6 channels
    Channel layout              : C L R Ls Rs LFE
    Sampling rate               : 48.0 kHz
    Frame rate                  : 93.750 FPS (512 SPF)
    Bit depth                   : 24 bits
    Compression mode            : Lossy
    Stream size                 : 594 MiB (2%)
    Title                       : Ingles [CinemaniaHDD]
    Language                    : English
    Default                     : No
    Forced                      : No

    Text #1
    ID                          : 4
    Format                      : PGS
    Muxing mode                 : zlib
    Codec ID                    : S_HDMV/PGS
    Codec ID/Info               : Picture based subtitle format used on BDs/HD-DVDs
    Duration                    : 1 h 40 min
    Bit rate                    : 19.0 kb/s
    Count of elements           : 1628
    Stream size                 : 13.7 MiB (0%)
    Title                       : Sub_Esp [PGS]
    Language                    : Spanish
    Default                     : No
    Forced                      : No

    Text #2
    ID                          : 5
    Format                      : PGS
    Muxing mode                 : zlib
    Codec ID                    : S_HDMV/PGS
    Codec ID/Info               : Picture based subtitle format used on BDs/HD-DVDs
    Duration                    : 1 h 40 min
    Bit rate                    : 27.1 kb/s
    Count of elements           : 2140
    Stream size                 : 19.5 MiB (0%)
    Title                       : Sub_Eng [PGS]
    Language                    : English
    Default                     : No
    Forced                      : No

    Text #3
    ID                          : 6
    Format                      : UTF-8
    Codec ID                    : S_TEXT/UTF8
    Codec ID/Info               : UTF-8 Plain Text
    Duration                    : 1 h 46 min
    Bit rate                    : 0 b/s
    Count of elements           : 10
    Stream size                 : 250 Bytes (0%)
    Title                       : Sub_Forzados
    Language                    : Spanish
    Default                     : Yes
    Forced                      : No

    Text #4
    ID                          : 7
    Format                      : UTF-8
    Codec ID                    : S_TEXT/UTF8
    Codec ID/Info               : UTF-8 Plain Text
    Duration                    : 1 h 46 min
    Bit rate                    : 29 b/s
    Count of elements           : 758
    Stream size                 : 22.9 KiB (0%)
    Title                       : Sub_Esp
    Language                    : Spanish
    Default                     : No
    Forced                      : No

    Menu
    00:00:00.000                : en:Chapter 01
    00:11:13.208                : en:Chapter 02
    00:18:01.542                : en:Chapter 03
    00:26:38.625                : en:Chapter 04
    00:35:36.333                : en:Chapter 05
    00:44:28.583                : en:Chapter 06
    00:52:34.083                : en:Chapter 07
    00:58:59.375                : en:Chapter 08
    01:08:38.583                : en:Chapter 09
    01:15:36.583                : en:Chapter 10
    01:29:57.042                : en:Chapter 11
    01:35:38.167                : en:Chapter 12

  • Peso: 32.3 GiB

Sinopsis

Descargar Riddick: Criaturas de la noche (2000) 4K UHD HDR latino. Una nave especial lleva a bordo 39 pasajeros que se dirigen a New Mecca, una colonia en el espacio exterior. Pero durante el vuelo tiene una avería, debido a una tormenta de meteoritos, que hace que la nave tenga que aterrizar en un planeta perdido. Para más inri hay un prisionero extremadamente peligroso: el pasajero número 40 es Richard Riddick, un peligroso criminal que está siendo transportado a una prisión de máxima seguridad. Por culpa del aterrizaje de emergencia mueren 29 pasajeros, y Riddick aprovecha para escapar. Aislados de toda forma de vida en un planeta donde nunca se pone el sol y no hay agua, creen estar ante un verdadero problema. Pero se equivocan, ya que los verdaderos problemas todavía están por llegar, ya que cada 22 años tiene lugar un eclipse y con la oscuridad llegan unos extraños y letales seres que querrán acabar con ellos.

Ficha técnica

Video trailer de la película

Enlaces de descarga

Rip de Bluray

Descargar Riddick: Criaturas de la noche (2000) 4K UHD HDR latino




Aportes de DPeliculasHDmega la pass es:dpeliculashdmega.org Aportes de CinemaniaHD la pass es:cinemaniahdd.com

Películas relacionadas

Riddick: Criaturas de la noche (2000) 4K UHD HDR latino pelicula full hd, Riddick: Criaturas de la noche (2000) 4K UHD HDR latino mega latino, Riddick: Criaturas de la noche (2000) 4K UHD HDR latino 4k latino, Riddick: Criaturas de la noche (2000) 4K UHD HDR latino pelicula completa, Riddick: Criaturas de la noche (2000) 4K UHD HDR latino descargar gratis, descargar Riddick: Criaturas de la noche (2000) 4K UHD HDR latino pelicula latino, Riddick: Criaturas de la noche (2000) 4K UHD HDR latino 1 link mega, Riddick: Criaturas de la noche (2000) 4K UHD HDR latino 1 link google drive, Riddick: Criaturas de la noche (2000) 4K UHD HDR latino hd 1080p latino.
Comentarios 0