Piso de soltero (1960) Full 1080p Latino

774 vistas
1 estrella2 estrellas3 estrellas4 estrellas5 estrellas (1 votos, promedio: 5,00 de 5)
Cargando…

Información de Piso de soltero (1960) Full 1080p Latino

Datos de la película

  • Calidad: Full 1080p
  • Audio: Español Latino AC3 2.0 BLURAY - Ingles DTS 5.1 BLURAY
  • Subtitulos: Español Latino PGS - Ingles PGS
  • Resolución: 1920x1080p
  • Formato: MKV
  • Codec: H.264
  • Encoder: Dracarys
  • Mediainfo: Clic para Mostrar Datos Ver
  • Format                                   : Matroska
    Format version                           : Version 4 / Version 2
    File size                                : 11.2 GiB
    Duration                                 : 2 h 5 min
    Overall bit rate                         : 12.8 Mb/s
    Movie name                               : CinemaniaHDD.net
    Encoded date                             : UTC 2018-08-09 03:13:42 / UTC 2018-07-31T22:05:36Z
    Writing application                      : mkvmerge v15.0.0 ('Duel with the Devil') 64-bit
    Writing library                          : libebml v1.3.5 + libmatroska v1.4.5 / Lavf57.7.2

    Video
    ID                                       : 1
    Format                                   : AVC
    Format/Info                              : Advanced Video Codec
    Format profile                           : High@L4.1
    Format settings                          : CABAC / 4 Ref Frames
    Format settings, CABAC                   : Yes
    Format settings, RefFrames               : 4 frames
    Codec ID                                 : V_MPEG4/ISO/AVC
    Duration                                 : 2 h 5 min
    Bit rate                                 : 10.8 Mb/s
    Width                                    : 1 920 pixels
    Height                                   : 1 080 pixels
    Display aspect ratio                     : 16:9
    Frame rate mode                          : Constant
    Frame rate                               : 23.976 (24000/1001) FPS
    Color space                              : YUV
    Chroma subsampling                       : 4:2:0
    Bit depth                                : 8 bits
    Scan type                                : Progressive
    Bits/(Pixel*Frame)                       : 0.218
    Stream size                              : 9.48 GiB (85%)
    Title                                    : Piso de soltero (1960) Full 1080p Latino
    Writing library                          : x264 core 148 r2708 86b7198
    Encoding settings                        : cabac=1 / ref=4 / deblock=1:0:0 / analyse=0x3:0x133 / me=esa / subme=10 / psy=1 / psy_rd=1.00:0.00 / mixed_ref=1 / me_range=24 / chroma_me=1 / trellis=2 / 8x8dct=1 / cqm=0 / deadzone=21,11 / fast_pskip=1 / chroma_qp_offset=-2 / threads=34 / lookahead_threads=5 / sliced_threads=0 / nr=0 / decimate=1 / interlaced=0 / bluray_compat=0 / constrained_intra=0 / bframes=8 / b_pyramid=2 / b_adapt=2 / b_bias=0 / direct=3 / weightb=1 / open_gop=0 / weightp=2 / keyint=240 / keyint_min=24 / scenecut=40 / intra_refresh=0 / rc_lookahead=60 / rc=crf / mbtree=1 / crf=20.0 / qcomp=0.60 / qpmin=0 / qpmax=69 / qpstep=4 / vbv_maxrate=62500 / vbv_bufsize=78125 / crf_max=0.0 / nal_hrd=none / filler=0 / ip_ratio=1.40 / aq=1:1.00
    Language                                 : English
    Default                                  : Yes
    Forced                                   : No
    Color range                              : Limited
    Color primaries                          : BT.709
    Transfer characteristics                 : BT.709
    Matrix coefficients                      : BT.709
    Statistics Tags Issue                    : mkvmerge v15.0.0 ('Duel with the Devil') 64-bit 2018-08-09 03:13:42 / mkvmerge v15.0.0 ('Duel with the Devil') 64-bit 2018-08-09 03:13:42 / UTC 2018-07-31T22:05:36Z
    FromStats_BitRate                        : 11063403
    FromStats_Duration                       : 02:05:12.422000000
    FromStats_FrameCount                     : 180118
    FromStats_StreamSize                     : 10389119013

    Audio #1
    ID                                       : 2
    Format                                   : AC-3
    Format/Info                              : Audio Coding 3
    Format settings, Endianness              : Big
    Codec ID                                 : A_AC3
    Duration                                 : 2 h 5 min
    Bit rate mode                            : Constant
    Bit rate                                 : 224 kb/s
    Channel(s)                               : 2 channels
    Channel positions                        : Front: L R
    Sampling rate                            : 48.0 kHz
    Frame rate                               : 31.250 FPS (1536 SPF)
    Bit depth                                : 16 bits
    Compression mode                         : Lossy
    Stream size                              : 201 MiB (2%)
    Language                                 : Spanish
    Service kind                             : Complete Main
    Default                                  : Yes
    Forced                                   : No
    Statistics Tags Issue                    : mkvmerge v15.0.0 ('Duel with the Devil') 64-bit 2018-08-09 03:13:42 / mkvmerge v15.0.0 ('Duel with the Devil') 64-bit 2018-08-09 03:13:42 / UTC 2018-07-31T22:05:36Z
    FromStats_BitRate                        : 224000
    FromStats_Duration                       : 02:05:12.448000000
    FromStats_FrameCount                     : 234764
    FromStats_StreamSize                     : 210348544

    Audio #2
    ID                                       : 3
    Format                                   : DTS
    Format/Info                              : Digital Theater Systems
    Mode                                     : 16
    Format settings, Endianness              : Big
    Codec ID                                 : A_DTS
    Duration                                 : 2 h 5 min
    Bit rate mode                            : Constant
    Bit rate                                 : 1 509 kb/s
    Channel(s)                               : 6 channels
    Channel positions                        : Front: L C R, Side: L R, LFE
    Sampling rate                            : 48.0 kHz
    Frame rate                               : 93.750 FPS (512 SPF)
    Bit depth                                : 24 bits
    Compression mode                         : Lossy
    Delay relative to video                  : 125 ms
    Stream size                              : 1.32 GiB (12%)
    Language                                 : English
    Default                                  : No
    Forced                                   : No
    Statistics Tags Issue                    : mkvmerge v15.0.0 ('Duel with the Devil') 64-bit 2018-08-09 03:13:42 / mkvmerge v15.0.0 ('Duel with the Devil') 64-bit 2018-08-09 03:13:42 / UTC 2018-07-31T22:05:36Z
    FromStats_BitRate                        : 1508999
    FromStats_Duration                       : 02:05:12.331000000
    FromStats_FrameCount                     : 704281
    FromStats_StreamSize                     : 1417013372

    Text #1
    ID                                       : 4
    Format                                   : PGS
    Muxing mode                              : zlib
    Codec ID                                 : S_HDMV/PGS
    Codec ID/Info                            : Picture based subtitle format used on BDs/HD-DVDs
    Language                                 : English
    Default                                  : No
    Forced                                   : No
    Statistics Tags Issue                    : mkvmerge v15.0.0 ('Duel with the Devil') 64-bit 2018-08-09 03:13:42 / mkvmerge v15.0.0 ('Duel with the Devil') 64-bit 2018-08-09 03:13:42 / UTC 2018-07-31T22:05:36Z
    FromStats_BitRate                        : 47619
    FromStats_Duration                       : 02:03:13.386000000
    FromStats_FrameCount                     : 2977
    FromStats_StreamSize                     : 44008393

    Text #2
    ID                                       : 5
    Format                                   : PGS
    Muxing mode                              : zlib
    Codec ID                                 : S_HDMV/PGS
    Codec ID/Info                            : Picture based subtitle format used on BDs/HD-DVDs
    Language                                 : Spanish
    Default                                  : No
    Forced                                   : No
    Statistics Tags Issue                    : mkvmerge v15.0.0 ('Duel with the Devil') 64-bit 2018-08-09 03:13:42 / mkvmerge v15.0.0 ('Duel with the Devil') 64-bit 2018-08-09 03:13:42 / UTC 2018-07-31T22:05:36Z
    FromStats_BitRate                        : 46071
    FromStats_Duration                       : 02:03:28.818000000
    FromStats_FrameCount                     : 3198
    FromStats_StreamSize                     : 42666801

    Text #3
    ID                                       : 6
    Format                                   : PGS
    Muxing mode                              : zlib
    Codec ID                                 : S_HDMV/PGS
    Codec ID/Info                            : Picture based subtitle format used on BDs/HD-DVDs
    Title                                    : Forzados
    Language                                 : Spanish
    Default                                  : No
    Forced                                   : No
    Statistics Tags Issue                    : mkvmerge v15.0.0 ('Duel with the Devil') 64-bit 2018-08-09 03:13:42 / mkvmerge v15.0.0 ('Duel with the Devil') 64-bit 2018-08-09 03:13:42 / UTC 2018-07-31T22:05:36Z
    FromStats_BitRate                        : 261
    FromStats_Duration                       : 01:50:53.981000000
    FromStats_FrameCount                     : 16
    FromStats_StreamSize                     : 217612

    Menu
    00:00:00.000                             : :Chapter 1
    00:05:21.738                             : :Chapter 2
    00:10:27.210                             : :Chapter 3
    00:16:20.980                             : :Chapter 4
    00:20:47.538                             : :Chapter 5
    00:25:45.669                             : :Chapter 6
    00:32:13.473                             : :Chapter 7
    00:35:22.287                             : :Chapter 8
    00:42:05.273                             : :Chapter 9
    00:45:42.823                             : :Chapter 10
    00:48:44.004                             : :Chapter 11
    00:52:52.252                             : :Chapter 12
    00:56:15.080                             : :Chapter 13
    01:02:22.822                             : :Chapter 14
    01:06:10.967                             : :Chapter 15
    01:11:33.790                             : :Chapter 16
    01:17:56.422                             : :Chapter 17
    01:23:25.792                             : :Chapter 18
    01:28:32.474                             : :Chapter 19
    01:33:03.244                             : :Chapter 20
    01:36:23.611                             : :Chapter 21
    01:50:44.304                             : :Chapter 22
    01:56:22.017                             : :Chapter 23
    02:00:41.776                             : :Chapter 24

  • Peso: 11.2 GiB

Sinopsis

C.C. Baxter es un modesto pero ambicioso empleado de una compañía de seguros de Manhattan. Está soltero y vive solo en un discreto apartamento que presta ocasionalmente a sus superiores para sus citas amorosas. Tiene la esperanza de que estos favores le sirvan para mejorar su posición en la empresa. Pero la situación cambia cuando se enamora de una ascensorista que resulta ser la amante de uno de los jefes que usan su apartamento.

Ficha técnica

Video trailer de la película

Enlaces de descarga

Rip de Bluray

Descargar Piso de soltero (1960) Full 1080p Latino




Aportes de DPeliculasHDmega la pass es:dpeliculashdmega.org Aportes de CinemaniaHD la pass es:cinemaniahdd.com

Películas relacionadas

  • Unbroken Path to Redemption (2018) 1080p Latino

    2018
    Unbroken Path to Redemption (2018) 1080p Latino

    0.0 1h 38m 2018

    Zamperini regresa a California donde se casó a regañadientes con Cynthia Applewhite mientras luchaba...

    Director: Harold Cronk

    Género: Drama

    Actores: Will Graham

  • Matar o morir (2018) 1080p Subtitulado

    2018
    Matar o morir (2018) 1080p Subtitulado

    5.0 1h 41m 2018

    Descargar Matar o morir [Peppermint] (2018) 1080p Subtitulado, Mega, Google Drive. LRiley North (Jennifer...

    Director: Pierre Morel

    Género: Acción

    Actores: YaYa Gosselin

  • Ni en tus sueños (2010) Full 1080p Latino

    2010
    Ni en tus sueños (2010) Full 1080p Latino

    0.0 1h 44m 2010

    Descargar Ni en tus sueños (2010) Full 1080p Latino, Mega, Google Drive. Kirk (Jay Baruchel, "Tropic...

    Director: Richard L. Fox

    Género: Comedia

    Actores: Yan Xi

  • Ni en tus sueños (2010) 1080p Latino

    2010
    Ni en tus sueños (2010) 1080p Latino

    0.0 1h 44m 2010

    Descargar Ni en tus sueños (2010) 1080p Latino, Mega, Google Drive. Kirk (Jay Baruchel, "Tropic Thunder")...

    Director: Richard L. Fox

    Género: Comedia

    Actores: Yan Xi

Comentarios 0