×

¿Problemas para descargar con Mozilla, EDGE? Deshabilita la opción "Abrir vinculos en una pestaña nueva" tal como lo muestra ésta imagen.

Pirates of the Caribbean On Stranger Tides (2011) REMUX 4K HDR Latino – CMHDD

99 vistas

Información de Pirates of the Caribbean On Stranger Tides (2011) REMUX 4K HDR Latino – CMHDD

Datos de la película

  • Calidad: 4K HDR
  • Audio: Se especifica abajo de la Sinopsis
  • Subtitulos: Español Latino PGS
  • Resolución: 3840x2160p
  • Formato: MKV
  • Codec: H.264
  • Encoder: Dracarys
  • Mediainfo: Clic para Mostrar Datos Ver
  • Format                      : Matroska
    Format version              : Version 4
    File size                   : 50.0 GiB
    Duration                    : 2 h 16 min
    Overall bit rate mode       : Variable
    Overall bit rate            : 52.5 Mb/s
    Movie name                  : Pirates of the Caribbean: On Stranger Tides (2011) REMUX 4K HDR Latino - CMHDD
    Encoded date                : UTC 2022-05-08 23:50:20
    Writing application         : mkvmerge v17.0.0 ('Be Ur Friend') 64-bit
    Writing library             : libebml v1.3.5 + libmatroska v1.4.8

    Video
    ID                          : 1
    Format                      : HEVC
    Format/Info                 : High Efficiency Video Coding
    Format profile              : Main 10@L5.1@High
    HDR format                  : SMPTE ST 2086, HDR10 compatible
    Codec ID                    : V_MPEGH/ISO/HEVC
    Duration                    : 2 h 16 min
    Bit rate                    : 46.4 Mb/s
    Width                       : 3 840 pixels
    Height                      : 2 160 pixels
    Display aspect ratio        : 16:9
    Frame rate mode             : Constant
    Frame rate                  : 23.976 (24000/1001) FPS
    Color space                 : YUV
    Chroma subsampling          : 4:2:0 (Type 2)
    Bit depth                   : 10 bits
    Bits/(Pixel*Frame)          : 0.233
    Stream size                 : 44.2 GiB (88%)
    Default                     : Yes
    Forced                      : No
    Color range                 : Limited
    Color primaries             : BT.2020
    Transfer characteristics    : PQ
    Matrix coefficients         : BT.2020 non-constant
    Mastering display color pri : Display P3
    Mastering display luminance : min: 0.0050 cd/m2, max: 4000 cd/m2

    Audio #1
    ID                          : 2
    Format                      : MLP FBA 16-ch
    Format/Info                 : Meridian Lossless Packing FBA with 16-channel presentation
    Commercial name             : Dolby TrueHD with Dolby Atmos
    Codec ID                    : A_TRUEHD
    Duration                    : 2 h 16 min
    Bit rate mode               : Variable
    Bit rate                    : 4 337 kb/s
    Maximum bit rate            : 6 105 kb/s
    Channel(s)                  : 8 channels
    Channel layout              : L R C LFE Ls Rs Lb Rb
    Sampling rate               : 48.0 kHz
    Frame rate                  : 1 200.000 FPS (40 SPF)
    Compression mode            : Lossless
    Stream size                 : 4.13 GiB (8%)
    Language                    : English
    Default                     : No
    Forced                      : No
    Number of dynamic objects   : 13
    Bed channel count           : 1 channel
    Bed channel configuration   : LFE

    Audio #2
    ID                          : 3
    Format                      : AC-3
    Format/Info                 : Audio Coding 3
    Commercial name             : Dolby Digital
    Codec ID                    : A_AC3
    Duration                    : 2 h 16 min
    Bit rate mode               : Constant
    Bit rate                    : 640 kb/s
    Channel(s)                  : 6 channels
    Channel layout              : L R C LFE Ls Rs
    Sampling rate               : 48.0 kHz
    Frame rate                  : 31.250 FPS (1536 SPF)
    Compression mode            : Lossy
    Stream size                 : 624 MiB (1%)
    Language                    : English
    Service kind                : Complete Main
    Default                     : No
    Forced                      : No

    Audio #3
    ID                          : 4
    Format                      : E-AC-3
    Format/Info                 : Enhanced AC-3
    Commercial name             : Dolby Digital Plus
    Format profile              : Blu-ray Disc
    Codec ID                    : A_EAC3
    Duration                    : 2 h 16 min
    Bit rate mode               : Constant
    Bit rate                    : 1 024 kb/s
    Channel(s)                  : 6 channels
    Channel(s)_Original         : 8 channels
    ChannelLayout_Original      : L R C LFE Ls Rs Lrs Rrs
    Sampling rate               : 48.0 kHz
    Frame rate                  : 31.250 FPS (1536 SPF)
    Compression mode            : Lossy
    Stream size                 : 999 MiB (2%)
    Language                    : Spanish
    Service kind                : Complete Main
    Default                     : Yes
    Forced                      : No

    Text #1
    ID                          : 5
    Format                      : PGS
    Muxing mode                 : zlib
    Codec ID                    : S_HDMV/PGS
    Codec ID/Info               : Picture based subtitle format used on BDs/HD-DVDs
    Duration                    : 2 h 6 min
    Bit rate                    : 29.7 kb/s
    Count of elements           : 2530
    Stream size                 : 26.9 MiB (0%)
    Language                    : Spanish
    Default                     : No
    Forced                      : No

    Text #2
    ID                          : 6
    Format                      : PGS
    Muxing mode                 : zlib
    Codec ID                    : S_HDMV/PGS
    Codec ID/Info               : Picture based subtitle format used on BDs/HD-DVDs
    Duration                    : 2 h 6 min
    Bit rate                    : 168 b/s
    Count of elements           : 12
    Stream size                 : 156 KiB (0%)
    Language                    : Spanish
    Default                     : No
    Forced                      : No

    Menu
    00:00:00.000                : en:Chapter 1
    00:03:34.172                : en:Chapter 2
    00:08:46.776                : en:Chapter 3
    00:15:58.582                : en:Chapter 4
    00:18:34.154                : en:Chapter 5
    00:21:15.315                : en:Chapter 6
    00:30:05.512                : en:Chapter 7
    00:36:56.756                : en:Chapter 8
    00:42:05.356                : en:Chapter 9
    00:48:20.022                : en:Chapter 10
    00:53:26.077                : en:Chapter 11
    00:55:42.964                : en:Chapter 12
    00:57:52.844                : en:Chapter 13
    01:00:47.477                : en:Chapter 14
    01:08:22.223                : en:Chapter 15
    01:11:41.338                : en:Chapter 16
    01:13:03.170                : en:Chapter 17
    01:14:16.743                : en:Chapter 18
    01:23:19.995                : en:Chapter 19
    01:26:49.621                : en:Chapter 20
    01:30:16.494                : en:Chapter 21
    01:35:43.738                : en:Chapter 22
    01:40:57.926                : en:Chapter 23
    01:43:07.556                : en:Chapter 24
    01:44:51.660                : en:Chapter 25
    01:48:53.610                : en:Chapter 26
    01:57:41.471                : en:Chapter 27
    02:02:21.375                : en:Chapter 28
    02:05:51.460                : en:Chapter 29
    02:07:26.805                : en:Chapter 30

  • Peso: 50.0 GiB

Sinopsis

Cuando Jack Sparrow vuelve a encontrarse con una mujer a la que había conocido años atrás, no está seguro de si se trata de amor o si ella es una estafadora sin escrúpulos que lo está utilizando para encontrar la legendaria Fuente de la Juventud. A todo esto, Jack es capturado por el Venganza de la Reina Ana, el barco del temible pirata Barbanegra, que lo obliga a unirse a su tripulación, lo que le hará vivir una inesperada aventura en la que no sabe quién le inspira más miedo si Barbanegra o esa mujer que regresa del pasado.

 

Latino: E-AC3 7.1  –  Inglés: True HD 7.1

Ficha técnica

Video trailer de la película

Enlaces de descarga

Rip de Bluray

Descargar Pirates of the Caribbean On Stranger Tides (2011) REMUX 4K HDR Latino – CMHDD


Aportes de DPeliculasHDmega la pass es:dpeliculashdmega.org Aportes de CinemaniaHD la pass es:cinemaniahdd.com
Guardado en : Acción , Aventura , Fantasía

Películas relacionadas

descargar Pirates of the Caribbean On Stranger Tides (2011) REMUX 4K HDR Latino – CMHDD 4K HDR 1080p gratis, Pirates of the Caribbean On Stranger Tides (2011) REMUX 4K HDR Latino – CMHDD 4K HDR mega 1 link, Pirates of the Caribbean On Stranger Tides (2011) REMUX 4K HDR Latino – CMHDD 4K HDR pelicula completa, descargar Pirates of the Caribbean On Stranger Tides (2011) REMUX 4K HDR Latino – CMHDD 4K HDR gratis en mega.

Pirates of the Caribbean On Stranger Tides (2011) REMUX 4K HDR Latino – CMHDD pelicula full hd, Pirates of the Caribbean On Stranger Tides (2011) REMUX 4K HDR Latino – CMHDD mega latino, Pirates of the Caribbean On Stranger Tides (2011) REMUX 4K HDR Latino – CMHDD 4k latino, Pirates of the Caribbean On Stranger Tides (2011) REMUX 4K HDR Latino – CMHDD pelicula completa, Pirates of the Caribbean On Stranger Tides (2011) REMUX 4K HDR Latino – CMHDD descargar gratis, descargar Pirates of the Caribbean On Stranger Tides (2011) REMUX 4K HDR Latino – CMHDD pelicula latino, Pirates of the Caribbean On Stranger Tides (2011) REMUX 4K HDR Latino – CMHDD 1 link mega, Pirates of the Caribbean On Stranger Tides (2011) REMUX 4K HDR Latino – CMHDD 1 link google drive, Pirates of the Caribbean On Stranger Tides (2011) REMUX 4K HDR Latino – CMHDD hd 1080p latino.
Comentarios 0