×

¿Problemas para descargar con Mozilla, EDGE? Deshabilita la opción "Abrir vinculos en una pestaña nueva" tal como lo muestra ésta imagen.

Pirates of the Caribbean Dead Man’s Chest (2006) REMUX 4K HDR Latino – CMHDD

150 vistas

Información de Pirates of the Caribbean Dead Man’s Chest (2006) REMUX 4K HDR Latino – CMHDD

Datos de la película

  • Calidad: 4K HDR
  • Audio: Se especifica abajo de la Sinopsis
  • Subtitulos: Español Latino PGS
  • Resolución: 3840x2160p
  • Formato: MKV
  • Codec: H.264
  • Encoder: Dracarys
  • Mediainfo: Clic para Mostrar Datos Ver
  • Format                      : Matroska
    Format version              : Version 4
    File size                   : 50.9 GiB
    Duration                    : 2 h 30 min
    Overall bit rate mode       : Variable
    Overall bit rate            : 48.4 Mb/s
    Movie name                  : Pirates of the Caribbean: Dead Man's Chest (2006) REMUX 4K HDR Latino - CMHDD
    Encoded date                : UTC 2022-05-08 20:45:14
    Writing application         : mkvmerge v17.0.0 ('Be Ur Friend') 64-bit
    Writing library             : libebml v1.3.5 + libmatroska v1.4.8

    Video
    ID                          : 1
    Format                      : HEVC
    Format/Info                 : High Efficiency Video Coding
    Format profile              : Main 10@L5.1@High
    HDR format                  : SMPTE ST 2086, HDR10 compatible
    Codec ID                    : V_MPEGH/ISO/HEVC
    Duration                    : 2 h 30 min
    Bit rate                    : 42.4 Mb/s
    Width                       : 3 840 pixels
    Height                      : 2 160 pixels
    Display aspect ratio        : 16:9
    Frame rate mode             : Constant
    Frame rate                  : 23.976 (24000/1001) FPS
    Color space                 : YUV
    Chroma subsampling          : 4:2:0 (Type 2)
    Bit depth                   : 10 bits
    Bits/(Pixel*Frame)          : 0.213
    Stream size                 : 44.7 GiB (88%)
    Default                     : Yes
    Forced                      : No
    Color range                 : Limited
    Color primaries             : BT.2020
    Transfer characteristics    : PQ
    Matrix coefficients         : BT.2020 non-constant
    Mastering display color pri : Display P3
    Mastering display luminance : min: 0.0050 cd/m2, max: 4000 cd/m2

    Audio #1
    ID                          : 2
    Format                      : MLP FBA 16-ch
    Format/Info                 : Meridian Lossless Packing FBA with 16-channel presentation
    Commercial name             : Dolby TrueHD with Dolby Atmos
    Codec ID                    : A_TRUEHD
    Duration                    : 2 h 30 min
    Bit rate mode               : Variable
    Bit rate                    : 4 178 kb/s
    Maximum bit rate            : 6 009 kb/s
    Channel(s)                  : 8 channels
    Channel layout              : L R C LFE Ls Rs Lb Rb
    Sampling rate               : 48.0 kHz
    Frame rate                  : 1 200.000 FPS (40 SPF)
    Compression mode            : Lossless
    Stream size                 : 4.40 GiB (9%)
    Language                    : English
    Default                     : No
    Forced                      : No
    Number of dynamic objects   : 13
    Bed channel count           : 1 channel
    Bed channel configuration   : LFE

    Audio #2
    ID                          : 3
    Format                      : AC-3
    Format/Info                 : Audio Coding 3
    Commercial name             : Dolby Digital
    Codec ID                    : A_AC3
    Duration                    : 2 h 30 min
    Bit rate mode               : Constant
    Bit rate                    : 640 kb/s
    Channel(s)                  : 6 channels
    Channel layout              : L R C LFE Ls Rs
    Sampling rate               : 48.0 kHz
    Frame rate                  : 31.250 FPS (1536 SPF)
    Compression mode            : Lossy
    Stream size                 : 690 MiB (1%)
    Language                    : English
    Service kind                : Complete Main
    Default                     : No
    Forced                      : No

    Audio #3
    ID                          : 4
    Format                      : E-AC-3
    Format/Info                 : Enhanced AC-3
    Commercial name             : Dolby Digital Plus
    Format profile              : Blu-ray Disc
    Codec ID                    : A_EAC3
    Duration                    : 2 h 30 min
    Bit rate mode               : Constant
    Bit rate                    : 1 024 kb/s
    Channel(s)                  : 6 channels
    Channel(s)_Original         : 8 channels
    ChannelLayout_Original      : L R C LFE Ls Rs Lrs Rrs
    Sampling rate               : 48.0 kHz
    Frame rate                  : 31.250 FPS (1536 SPF)
    Compression mode            : Lossy
    Stream size                 : 1.08 GiB (2%)
    Language                    : Spanish
    Service kind                : Complete Main
    Default                     : Yes
    Forced                      : No

    Text #1
    ID                          : 5
    Format                      : PGS
    Muxing mode                 : zlib
    Codec ID                    : S_HDMV/PGS
    Codec ID/Info               : Picture based subtitle format used on BDs/HD-DVDs
    Duration                    : 2 h 20 min
    Bit rate                    : 26.1 kb/s
    Count of elements           : 2286
    Stream size                 : 26.2 MiB (0%)
    Language                    : Spanish
    Default                     : No
    Forced                      : No

    Text #2
    ID                          : 6
    Format                      : PGS
    Muxing mode                 : zlib
    Codec ID                    : S_HDMV/PGS
    Codec ID/Info               : Picture based subtitle format used on BDs/HD-DVDs
    Duration                    : 34 min 10 s
    Bit rate                    : 167 b/s
    Count of elements           : 6
    Stream size                 : 41.8 KiB (0%)
    Language                    : Spanish
    Default                     : No
    Forced                      : No

    Menu
    00:00:00.000                : en:Chapter 1
    00:04:18.925                : en:Chapter 2
    00:09:53.009                : en:Chapter 3
    00:12:13.441                : en:Chapter 4
    00:19:09.064                : en:Chapter 5
    00:23:53.473                : en:Chapter 6
    00:30:15.480                : en:Chapter 7
    00:35:29.418                : en:Chapter 8
    00:40:32.930                : en:Chapter 9
    00:46:28.035                : en:Chapter 10
    00:50:25.564                : en:Chapter 11
    00:56:18.625                : en:Chapter 12
    00:59:52.380                : en:Chapter 13
    01:05:45.191                : en:Chapter 14
    01:11:55.853                : en:Chapter 15
    01:17:04.328                : en:Chapter 16
    01:22:10.258                : en:Chapter 17
    01:30:36.639                : en:Chapter 18
    01:34:38.172                : en:Chapter 19
    01:39:21.830                : en:Chapter 20
    01:44:52.411                : en:Chapter 21
    01:49:14.714                : en:Chapter 22
    01:54:55.805                : en:Chapter 23
    01:59:36.043                : en:Chapter 24
    02:04:59.909                : en:Chapter 25
    02:10:27.194                : en:Chapter 26
    02:16:20.630                : en:Chapter 27
    02:21:04.873                : en:Chapter 28

  • Peso: 50.9 GiB

Sinopsis

Will Turner y Elizabeth Swann se van a casar, pero ambos son hechos prisioneros por Lord Cutler Beckett y acusados de haber liberado al capitán Jack Sparrow. Para salvar su vida, Will tendrá que encontrar a Jack y conseguir su misteriosa brújula. Esta esconde un gran poder, además de la clave de una deuda de sangre del pirata con un temible y siniestro Davy Jones, el legendario capitán del barco fantasma Holandés Errante.

 

Latino: E-AC3 7.1  –  Inglés: True HD 7.1

Ficha técnica

Video trailer de la película

Enlaces de descarga

Rip de Bluray

Descargar Pirates of the Caribbean Dead Man’s Chest (2006) REMUX 4K HDR Latino – CMHDD


Aportes de DPeliculasHDmega la pass es:dpeliculashdmega.org Aportes de CinemaniaHD la pass es:cinemaniahdd.com
Guardado en : Acción , Aventura , Fantasía

Películas relacionadas

  • Mi amigo el dragón (2016) Full HD 1080p Latino

    Mi amigo el dragón (2016) Full HD 1080p Latino

    2016
    Mi amigo el dragón (2016) Full HD 1080p Latino

    1h 43m 2016

    Descargar Mi amigo el dragón (2016) Full HD 1080p Latino. Durante años el Sr. Meacham, un viejo tallador...

    Director: Joe Nolan

    Género: Aventura

    Actores: William J. Rawbone

  • Mi amigo el dragón (2016) REMUX 1080p Latino

    Mi amigo el dragón (2016) REMUX 1080p Latino

    2016
    Mi amigo el dragón (2016) REMUX 1080p Latino

    1h 43m 2016

    Descargar Mi amigo el dragón (2016) REMUX 1080p Latino. Durante años el Sr. Meacham, un viejo tallador...

    Director: Joe Nolan

    Género: Aventura

    Actores: William J. Rawbone

  • Lucy (2014) REMUX 4K HDR Latino – CMHDD

    Lucy (2014) REMUX 4K HDR Latino – CMHDD

    2014
    Lucy (2014) REMUX 4K HDR Latino – CMHDD

    1h 30m 2014

    Lucy, una joven obligada a ejercer de mula de una nueva y potente droga, adquiere de repente enormes...

    Director: Luc Besson

    Género: Acción

    Actores: Wolfgang Pissors

descargar Pirates of the Caribbean Dead Man’s Chest (2006) REMUX 4K HDR Latino – CMHDD 4K HDR 1080p gratis, Pirates of the Caribbean Dead Man’s Chest (2006) REMUX 4K HDR Latino – CMHDD 4K HDR mega 1 link, Pirates of the Caribbean Dead Man’s Chest (2006) REMUX 4K HDR Latino – CMHDD 4K HDR pelicula completa, descargar Pirates of the Caribbean Dead Man’s Chest (2006) REMUX 4K HDR Latino – CMHDD 4K HDR gratis en mega.

Pirates of the Caribbean Dead Man’s Chest (2006) REMUX 4K HDR Latino – CMHDD pelicula full hd, Pirates of the Caribbean Dead Man’s Chest (2006) REMUX 4K HDR Latino – CMHDD mega latino, Pirates of the Caribbean Dead Man’s Chest (2006) REMUX 4K HDR Latino – CMHDD 4k latino, Pirates of the Caribbean Dead Man’s Chest (2006) REMUX 4K HDR Latino – CMHDD pelicula completa, Pirates of the Caribbean Dead Man’s Chest (2006) REMUX 4K HDR Latino – CMHDD descargar gratis, descargar Pirates of the Caribbean Dead Man’s Chest (2006) REMUX 4K HDR Latino – CMHDD pelicula latino, Pirates of the Caribbean Dead Man’s Chest (2006) REMUX 4K HDR Latino – CMHDD 1 link mega, Pirates of the Caribbean Dead Man’s Chest (2006) REMUX 4K HDR Latino – CMHDD 1 link google drive, Pirates of the Caribbean Dead Man’s Chest (2006) REMUX 4K HDR Latino – CMHDD hd 1080p latino.
Comentarios 0