×

¿Problemas para descargar con Mozilla, EDGE? Deshabilita la opción "Abrir vinculos en una pestaña nueva" tal como lo muestra ésta imagen.

Piratas del Caribe – Navegando aguas misteriosas (2011) REMUX 1080p Latino

1.596 vistas

Información de Piratas del Caribe – Navegando aguas misteriosas (2011) REMUX 1080p Latino

Datos de la película

  • Calidad: Full 1080p
  • Audio: Se especifica abajo de la Sinopsis
  • Subtitulos: Español Latino PGS - Ingles PGS
  • Resolución: 1920x1080p
  • Formato: MKV
  • Codec: H.264
  • Encoder: Dracarys | CinefiloCool
  • Mediainfo: Clic para Mostrar Datos Ver
  • P.o.t.C. - Navegando En Aguas Misteriosas (2011) REMUX 1080p Latino-CMHDD.mkv
    Format                      : Matroska
    Format version              : Version 4
    File size                   : 33.2 GiB
    Duration                    : 2 h 16 min
    Overall bit rate mode       : Variable
    Overall bit rate            : 34.9 Mb/s
    Movie name                  : Pirates of the Caribbean: On Stranger Tides (2011) CinemaniaHDD.Net
    Encoded date                : UTC 2022-05-05 08:08:45
    Writing application         : mkvmerge v56.1.0 ('My Friend') 64-bit
    Writing library             : libebml v1.4.2 + libmatroska v1.6.4
    Attachments                 : CINEMANIAHD.png

    Video
    ID                          : 1
    Format                      : AVC
    Format/Info                 : Advanced Video Codec
    Format profile              : High@L4.1
    Format settings             : CABAC / 4 Ref Frames
    Format settings, CABAC      : Yes
    Format settings, Reference  : 4 frames
    Format settings, GOP        : M=3, N=12
    Codec ID                    : V_MPEG4/ISO/AVC
    Duration                    : 2 h 16 min
    Bit rate mode               : Variable
    Bit rate                    : 25.8 Mb/s
    Maximum bit rate            : 34.0 Mb/s
    Width                       : 1 920 pixels
    Height                      : 1 080 pixels
    Display aspect ratio        : 16:9
    Frame rate mode             : Constant
    Frame rate                  : 23.976 (24000/1001) FPS
    Color space                 : YUV
    Chroma subsampling          : 4:2:0
    Bit depth                   : 8 bits
    Scan type                   : Progressive
    Bits/(Pixel*Frame)          : 0.519
    Stream size                 : 24.6 GiB (74%)
    Title                       : REMUX HD1080p [CinemaniaHDD]
    Default                     : Yes
    Forced                      : Yes

    Audio #1
    ID                          : 2
    Format                      : DTS XBR
    Format/Info                 : Digital Theater Systems
    Commercial name             : DTS-HD High Resolution Audio
    Codec ID                    : A_DTS
    Duration                    : 2 h 16 min
    Bit rate mode               : Constant
    Bit rate                    : 2 046 kb/s
    Channel(s)                  : 8 channels
    Channel layout              : C L R LFE Lb Rb Lss Rss
    Sampling rate               : 48.0 kHz
    Frame rate                  : 93.750 FPS (512 SPF)
    Bit depth                   : 24 bits
    Compression mode            : Lossy
    Stream size                 : 1.95 GiB (6%)
    Title                       : Español Latino [CinemaniaHDD]
    Language                    : Spanish
    Default                     : Yes
    Forced                      : Yes

    Audio #2
    ID                          : 3
    Format                      : DTS
    Format/Info                 : Digital Theater Systems
    Codec ID                    : A_DTS
    Duration                    : 2 h 16 min
    Bit rate mode               : Constant
    Bit rate                    : 1 509 kb/s
    Channel(s)                  : 6 channels
    Channel layout              : C L R Ls Rs LFE
    Sampling rate               : 48.0 kHz
    Frame rate                  : 93.750 FPS (512 SPF)
    Bit depth                   : 24 bits
    Compression mode            : Lossy
    Stream size                 : 1.44 GiB (4%)
    Title                       : Español Latino DTS [CinemaniaHDD]
    Language                    : Spanish
    Default                     : No
    Forced                      : No

    Audio #3
    ID                          : 4
    Format                      : DTS XLL
    Format/Info                 : Digital Theater Systems
    Commercial name             : DTS-HD Master Audio
    Codec ID                    : A_DTS
    Duration                    : 2 h 16 min
    Bit rate mode               : Variable
    Bit rate                    : 5 479 kb/s
    Channel(s)                  : 8 channels
    Channel layout              : C L R LFE Lb Rb Lss Rss
    Sampling rate               : 48.0 kHz
    Frame rate                  : 93.750 FPS (512 SPF)
    Bit depth                   : 24 bits
    Compression mode            : Lossless
    Stream size                 : 5.22 GiB (16%)
    Title                       : Ingles [CinemaniaHDD]
    Language                    : English
    Default                     : No
    Forced                      : No

    Text #1
    ID                          : 5
    Format                      : PGS
    Muxing mode                 : zlib
    Codec ID                    : S_HDMV/PGS
    Codec ID/Info               : Picture based subtitle format used on BDs/HD-DVDs
    Duration                    : 2 h 6 min
    Bit rate                    : 81 b/s
    Count of elements           : 8
    Stream size                 : 75.5 KiB (0%)
    Title                       : Forzados-PGS [CinemaniaHDD]
    Language                    : Spanish
    Default                     : No
    Forced                      : No

    Text #2
    ID                          : 6
    Format                      : PGS
    Muxing mode                 : zlib
    Codec ID                    : S_HDMV/PGS
    Codec ID/Info               : Picture based subtitle format used on BDs/HD-DVDs
    Duration                    : 2 h 6 min
    Bit rate                    : 27.3 kb/s
    Count of elements           : 2562
    Stream size                 : 24.8 MiB (0%)
    Title                       : Español-PGS [CinemaniaHDD]
    Language                    : Spanish
    Default                     : No
    Forced                      : No

    Text #3
    ID                          : 7
    Format                      : PGS
    Muxing mode                 : zlib
    Codec ID                    : S_HDMV/PGS
    Codec ID/Info               : Picture based subtitle format used on BDs/HD-DVDs
    Duration                    : 2 h 5 min
    Bit rate                    : 29.5 kb/s
    Count of elements           : 2662
    Stream size                 : 26.5 MiB (0%)
    Title                       : Ingles-PGS [CinemaniaHDD]
    Language                    : English
    Default                     : No
    Forced                      : No

    Text #4
    ID                          : 8
    Format                      : UTF-8
    Codec ID                    : S_TEXT/UTF8
    Codec ID/Info               : UTF-8 Plain Text
    Duration                    : 2 h 6 min
    Bit rate                    : 0 b/s
    Count of elements           : 6
    Stream size                 : 178 Bytes (0%)
    Title                       : Forzados-SRT [CinemaniaHDD]
    Language                    : Spanish
    Default                     : Yes
    Forced                      : Yes

    Text #5
    ID                          : 9
    Format                      : UTF-8
    Codec ID                    : S_TEXT/UTF8
    Codec ID/Info               : UTF-8 Plain Text
    Duration                    : 2 h 6 min
    Bit rate                    : 43 b/s
    Count of elements           : 1265
    Stream size                 : 40.6 KiB (0%)
    Title                       : Español-SRT [CinemaniaHDD]
    Language                    : Spanish
    Default                     : No
    Forced                      : No

    Menu
    00:00:00.000                : Chapter 01
    00:03:34.172                : Chapter 02
    00:08:46.776                : Chapter 03
    00:15:56.080                : Chapter 04
    00:18:34.154                : Chapter 05
    00:21:15.315                : Chapter 06
    00:30:05.512                : Chapter 07
    00:36:56.756                : Chapter 08
    00:42:05.356                : Chapter 09
    00:48:20.022                : Chapter 10
    00:53:26.077                : Chapter 11
    00:55:42.964                : Chapter 12
    00:57:52.844                : Chapter 13
    01:00:47.477                : Chapter 14
    01:08:22.223                : Chapter 15
    01:11:41.338                : Chapter 16
    01:13:03.170                : Chapter 17
    01:14:16.743                : Chapter 18
    01:23:19.994                : Chapter 19
    01:26:49.621                : Chapter 20
    01:30:16.494                : Chapter 21
    01:35:43.737                : Chapter 22
    01:40:57.926                : Chapter 23
    01:43:07.556                : Chapter 24
    01:44:51.660                : Chapter 25
    01:48:53.610                : Chapter 26
    01:57:41.471                : Chapter 27
    02:02:21.375                : Chapter 28
    02:05:51.460                : Chapter 29
    02:07:26.805                : Chapter 30

  • Peso: 33.2 GiB

Sinopsis

Descargar Piratas del Caribe – Navegando aguas misteriosas (2011) REMUX 1080p Latino. Cuando Jack Sparrow vuelve a encontrarse con una mujer a la que había conocido años atrás, no está seguro de si se trata de amor o si ella es una estafadora sin escrúpulos que lo está utilizando para encontrar la legendaria Fuente de la Juventud. A todo esto, Jack es capturado por el Venganza de la Reina Ana, el barco del temible pirata Barbanegra, que lo obliga a unirse a su tripulación, lo que le hará vivir una inesperada aventura en la que no sabe quién le inspira más miedo si Barbanegra o esa mujer que regresa del pasado.

Audio Español Latino DTS-HD HRA 7.1 + DTS 5.1 Bluray – Ingles DTS-HD 7.1 Bluray

links VIP Actualizados! 🙂

Ficha técnica

Video trailer de la película

Enlaces de descarga

Rip de Bluray

Descargar Piratas del Caribe – Navegando aguas misteriosas (2011) REMUX 1080p Latino




Aportes de DPeliculasHDmega la pass es:dpeliculashdmega.org Aportes de CinemaniaHD la pass es:cinemaniahdd.com Aportes recientes:cinemaniahdd.net
Guardado en : Acción , Aventura , Fantasía , Remux

Películas relacionadas

descargar Piratas del Caribe – Navegando aguas misteriosas (2011) REMUX 1080p Latino Full 1080p 1080p gratis, Piratas del Caribe – Navegando aguas misteriosas (2011) REMUX 1080p Latino Full 1080p mega 1 link, Piratas del Caribe – Navegando aguas misteriosas (2011) REMUX 1080p Latino Full 1080p pelicula completa, descargar Piratas del Caribe – Navegando aguas misteriosas (2011) REMUX 1080p Latino Full 1080p gratis en mega.

Piratas del Caribe – Navegando aguas misteriosas (2011) REMUX 1080p Latino pelicula full hd, Piratas del Caribe – Navegando aguas misteriosas (2011) REMUX 1080p Latino mega latino, Piratas del Caribe – Navegando aguas misteriosas (2011) REMUX 1080p Latino 4k latino, Piratas del Caribe – Navegando aguas misteriosas (2011) REMUX 1080p Latino pelicula completa, Piratas del Caribe – Navegando aguas misteriosas (2011) REMUX 1080p Latino descargar gratis, descargar Piratas del Caribe – Navegando aguas misteriosas (2011) REMUX 1080p Latino pelicula latino, Piratas del Caribe – Navegando aguas misteriosas (2011) REMUX 1080p Latino 1 link mega, Piratas del Caribe – Navegando aguas misteriosas (2011) REMUX 1080p Latino 1 link google drive, Piratas del Caribe – Navegando aguas misteriosas (2011) REMUX 1080p Latino hd 1080p latino.
Comentarios 0