×

¿Problemas para descargar con Mozilla, EDGE? Deshabilita la opción "Abrir vinculos en una pestaña nueva" tal como lo muestra ésta imagen.

Piratas del Caribe – La venganza de Salazar (2017) REMUX 1080p Latino

2.101 vistas

Información de Piratas del Caribe – La venganza de Salazar (2017) REMUX 1080p Latino

Datos de la película

  • Calidad: Full 1080p
  • Audio: Español Latino AC3 5.1 BLURAY - Ingles DTS-HD Master 7.1 BLURAY
  • Subtitulos: Español Latino PGS - Ingles PGS
  • Resolución: 1920x1080p
  • Formato: MKV
  • Codec: H.264
  • Encoder: Dracarys | CinefiloCool
  • Mediainfo: Clic para Mostrar Datos Ver
  • P.o.t.C. - La Venganza de Salazar (2017) REMUX 1080p Latino-CMHDD.mkv
    Format                      : Matroska
    Format version              : Version 4
    File size                   : 30.7 GiB
    Duration                    : 2 h 9 min
    Overall bit rate mode       : Variable
    Overall bit rate            : 34.1 Mb/s
    Movie name                  : Pirates Of The Caribbean. Salazar's Revenge (2017) CinemaniaHDD.Net
    Encoded date                : UTC 2022-05-07 04:35:33
    Writing application         : mkvmerge v56.1.0 ('My Friend') 64-bit
    Writing library             : libebml v1.4.2 + libmatroska v1.6.4
    Attachments                 : CINEMANIAHD.png

    Video
    ID                          : 1
    ID in the original source m : 4113 (0x1011)
    Format                      : AVC
    Format/Info                 : Advanced Video Codec
    Format profile              : High@L4.1
    Format settings             : CABAC / 4 Ref Frames
    Format settings, CABAC      : Yes
    Format settings, Reference  : 4 frames
    Codec ID                    : V_MPEG4/ISO/AVC
    Duration                    : 2 h 9 min
    Bit rate mode               : Variable
    Bit rate                    : 27.9 Mb/s
    Maximum bit rate            : 34.5 Mb/s
    Width                       : 1 920 pixels
    Height                      : 1 080 pixels
    Display aspect ratio        : 16:9
    Frame rate mode             : Constant
    Frame rate                  : 23.976 (24000/1001) FPS
    Color space                 : YUV
    Chroma subsampling          : 4:2:0
    Bit depth                   : 8 bits
    Scan type                   : Progressive
    Bits/(Pixel*Frame)          : 0.561
    Stream size                 : 25.2 GiB (82%)
    Title                       : REMUX HD1080p [CinemaniaHDD]
    Default                     : Yes
    Forced                      : Yes
    Original source medium      : Blu-ray

    Audio #1
    ID                          : 2
    Format                      : AC-3
    Format/Info                 : Audio Coding 3
    Commercial name             : Dolby Digital
    Codec ID                    : A_AC3
    Duration                    : 2 h 9 min
    Bit rate mode               : Constant
    Bit rate                    : 640 kb/s
    Channel(s)                  : 6 channels
    Channel layout              : L R C LFE Ls Rs
    Sampling rate               : 48.0 kHz
    Frame rate                  : 31.250 FPS (1536 SPF)
    Compression mode            : Lossy
    Stream size                 : 591 MiB (2%)
    Title                       : Español Latino [CinemaniaHDD]
    Language                    : Spanish
    Service kind                : Complete Main
    Default                     : Yes
    Forced                      : Yes

    Audio #2
    ID                          : 3
    ID in the original source m : 4352 (0x1100)
    Format                      : DTS XLL
    Format/Info                 : Digital Theater Systems
    Commercial name             : DTS-HD Master Audio
    Codec ID                    : A_DTS
    Duration                    : 2 h 9 min
    Bit rate mode               : Variable
    Bit rate                    : 5 503 kb/s
    Channel(s)                  : 8 channels
    Channel layout              : C L R LFE Lb Rb Lss Rss
    Sampling rate               : 48.0 kHz
    Frame rate                  : 93.750 FPS (512 SPF)
    Bit depth                   : 24 bits
    Compression mode            : Lossless
    Stream size                 : 4.96 GiB (16%)
    Title                       : Ingles [CinemaniaHDD]
    Language                    : English
    Default                     : No
    Forced                      : No
    Original source medium      : Blu-ray

    Text #1
    ID                          : 4
    Format                      : PGS
    Muxing mode                 : zlib
    Codec ID                    : S_HDMV/PGS
    Codec ID/Info               : Picture based subtitle format used on BDs/HD-DVDs
    Duration                    : 1 h 2 min
    Bit rate                    : 257 b/s
    Count of elements           : 16
    Stream size                 : 118 KiB (0%)
    Title                       : Forzados-PGS [CinemaniaHDD]
    Language                    : Spanish
    Default                     : No
    Forced                      : No

    Text #2
    ID                          : 5
    Format                      : PGS
    Muxing mode                 : zlib
    Codec ID                    : S_HDMV/PGS
    Codec ID/Info               : Picture based subtitle format used on BDs/HD-DVDs
    Duration                    : 1 h 59 min
    Bit rate                    : 28.6 kb/s
    Count of elements           : 2640
    Stream size                 : 24.4 MiB (0%)
    Title                       : Español-PGS [CinemaniaHDD]
    Language                    : Spanish
    Default                     : No
    Forced                      : No

    Text #3
    ID                          : 6
    ID in the original source m : 4608 (0x1200)
    Format                      : PGS
    Muxing mode                 : zlib
    Codec ID                    : S_HDMV/PGS
    Codec ID/Info               : Picture based subtitle format used on BDs/HD-DVDs
    Duration                    : 2 h 7 min
    Bit rate                    : 33.1 kb/s
    Count of elements           : 3540
    Stream size                 : 30.2 MiB (0%)
    Title                       : Ingles-PGS [CinemaniaHDD]
    Language                    : English
    Default                     : No
    Forced                      : No
    Original source medium      : Blu-ray

    Text #4
    ID                          : 7
    Format                      : UTF-8
    Codec ID                    : S_TEXT/UTF8
    Codec ID/Info               : UTF-8 Plain Text
    Duration                    : 1 h 2 min
    Bit rate                    : 0 b/s
    Count of elements           : 8
    Stream size                 : 147 Bytes (0%)
    Title                       : Forzados-SRT [CinemaniaHDD]
    Language                    : Spanish
    Default                     : Yes
    Forced                      : Yes

    Text #5
    ID                          : 8
    Format                      : UTF-8
    Codec ID                    : S_TEXT/UTF8
    Codec ID/Info               : UTF-8 Plain Text
    Duration                    : 1 h 59 min
    Bit rate                    : 45 b/s
    Count of elements           : 1320
    Stream size                 : 39.6 KiB (0%)
    Title                       : Español-SRT [CinemaniaHDD]
    Language                    : Spanish
    Default                     : No
    Forced                      : No

    Menu
    00:00:00.000                : Father's Curse
    00:05:49.516                : "Arrest Him"
    00:08:34.222                : Captain Salazar
    00:13:40.820                : "Stop That Witch"
    00:16:29.155                : Runaway Bank
    00:22:33.852                : Bad Luck
    00:25:19.268                : "Hidden In The Stars"
    00:28:06.101                : "We Are Free"
    00:31:41.775                : Blood Moon
    00:33:44.814                : "Looking For A Pirate"
    00:37:02.053                : Barbossa's Treasure
    00:42:27.712                : "Final Words"
    00:49:09.071                : "Cordiality"
    00:54:00.279                : Bluffing
    00:57:19.394                : "Closer Than You Think"
    01:00:38.718                : Salazar's Story
    01:08:29.939                : Mutiny
    01:11:57.021                : Ghost Sharks
    01:16:50.940                : "Unscratchable Itch"
    01:19:27.471                : Wedding Day
    01:25:04.808                : "Just Believe Her"
    01:27:42.174                : "So You're An Orphan"
    01:31:43.790                : "Nowhere To Hide"
    01:38:22.814                : The Island
    01:42:36.776                : Poseidon's Trident
    01:47:23.562                : "All Must Divide"
    01:52:58.689                : "Let Me Tell You A Tale"
    01:59:09.934                : Credits

  • Peso: 30.7 GiB

Sinopsis

Descargar Piratas del Caribe – La venganza de Salazar (2017) REMUX 1080p Latino. El capitán Jack Sparrow se enfrentará a un grupo de piratas-fantasma comandados por una de sus viejas némesis, el terrorífico capitán Salazar, recién escapado del Triángulo de las Bermudas. La única posibilidad de Sparrow para salir con vida es encontrar el legendario Tridente de Poseidón, un poderoso artefacto que le da a su poseedor el control de los mares.

Resubido! 🙂

Ficha técnica

Video trailer de la película

Enlaces de descarga

Rip de Bluray

Descargar Piratas del Caribe – La venganza de Salazar (2017) REMUX 1080p Latino




Aportes de DPeliculasHDmega la pass es:dpeliculashdmega.org Aportes de CinemaniaHD la pass es:cinemaniahdd.com
Guardado en : Acción , Aventura , Comedia , Fantasía , Remux

Películas relacionadas

  • DC Liga De Supermascotas (2022) HD 1080p Latino

    DC Liga De Supermascotas (2022) HD 1080p Latino

    2022
    DC Liga De Supermascotas (2022) HD 1080p Latino

    1h 45m 2022

    Descargar DC Liga De Supermascotas (2022) HD 1080p Latino. Krypto el Superperro y Superman son amigos...

    Director: Sam Levine

    Género: Acción

    Actores: Yvette Nicole Brown

  • Rick and Morty (2022) Temporada 6 WEB-DL 1080p Latino

    Rick and Morty (2022) Temporada 6 WEB-DL 1080p Latino

    2013
    Rick and Morty (2022) Temporada 6 WEB-DL 1080p Latino

    0h 22m 2013

    Comedia animada que narra las aventuras de un científico loco Rick Sánchez, que regresa después de...

    Director: Justin Roiland

    Género: Action & Adventure

    Actores: Spencer Grammer

  • Tremors (1990) REMUX 4K HDR Latino – CMHDD

    Tremors (1990) REMUX 4K HDR Latino – CMHDD

    1990
    Tremors (1990) REMUX 4K HDR Latino – CMHDD

    1h 35m 1990

    En Perfección, un pequeño pueblo al borde del desierto de Nevada, algo parece suceder debajo de la...

    Director: Susan Bierbaum

    Género: Acción

    Actores: Victor Wong

descargar Piratas del Caribe – La venganza de Salazar (2017) REMUX 1080p Latino Full 1080p 1080p gratis, Piratas del Caribe – La venganza de Salazar (2017) REMUX 1080p Latino Full 1080p mega 1 link, Piratas del Caribe – La venganza de Salazar (2017) REMUX 1080p Latino Full 1080p pelicula completa, descargar Piratas del Caribe – La venganza de Salazar (2017) REMUX 1080p Latino Full 1080p gratis en mega.

Piratas del Caribe – La venganza de Salazar (2017) REMUX 1080p Latino pelicula full hd, Piratas del Caribe – La venganza de Salazar (2017) REMUX 1080p Latino mega latino, Piratas del Caribe – La venganza de Salazar (2017) REMUX 1080p Latino 4k latino, Piratas del Caribe – La venganza de Salazar (2017) REMUX 1080p Latino pelicula completa, Piratas del Caribe – La venganza de Salazar (2017) REMUX 1080p Latino descargar gratis, descargar Piratas del Caribe – La venganza de Salazar (2017) REMUX 1080p Latino pelicula latino, Piratas del Caribe – La venganza de Salazar (2017) REMUX 1080p Latino 1 link mega, Piratas del Caribe – La venganza de Salazar (2017) REMUX 1080p Latino 1 link google drive, Piratas del Caribe – La venganza de Salazar (2017) REMUX 1080p Latino hd 1080p latino.
Comentarios 0