×

¿Problemas para descargar con Mozilla, EDGE? Deshabilita la opción "Abrir vinculos en una pestaña nueva" tal como lo muestra ésta imagen.

Piratas del Caribe – En el fin del mundo (2007) REMUX 1080p Latino

1.338 vistas

Información de Piratas del Caribe – En el fin del mundo (2007) REMUX 1080p Latino

Datos de la película

  • Calidad: Full 1080p
  • Audio: Español Latino AC3 5.1 BLURAY - Ingles DTS 5.1 BLURAY
  • Subtitulos: Español Latino PGS - Ingles PGS
  • Resolución: 1920x1080p
  • Formato: MKV
  • Codec: H.264
  • Encoder: Dracarys
  • Mediainfo: Clic para Mostrar Datos Ver
  • P.o.t.C. - En el Fin del Mundo (2007) REMUX 1080p Latino-CMHDD.mkv
    Format                      : Matroska
    Format version              : Version 4
    File size                   : 29.7 GiB
    Duration                    : 2 h 48 min
    Overall bit rate mode       : Variable
    Overall bit rate            : 25.2 Mb/s
    Movie name                  : CinemaniaHDD.Net
    Encoded date                : UTC 2020-01-12 06:08:30
    Writing application         : mkvmerge v38.0.0 ('The Silent Type') 64-bit
    Writing library             : libebml v1.3.9 + libmatroska v1.5.2
    Attachments                 : CINEMANIAHD.png

    Video
    ID                          : 1
    Format                      : AVC
    Format/Info                 : Advanced Video Codec
    Format profile              : High@L4.1
    Format settings             : CABAC / 3 Ref Frames
    Format settings, CABAC      : Yes
    Format settings, ReFrames   : 3 frames
    Format settings, GOP        : M=3, N=24
    Codec ID                    : V_MPEG4/ISO/AVC
    Duration                    : 2 h 48 min
    Bit rate mode               : Variable
    Bit rate                    : 22.1 Mb/s
    Maximum bit rate            : 40.0 Mb/s
    Width                       : 1 920 pixels
    Height                      : 1 080 pixels
    Display aspect ratio        : 16:9
    Frame rate mode             : Constant
    Frame rate                  : 23.976 (24000/1001) FPS
    Color space                 : YUV
    Chroma subsampling          : 4:2:0
    Bit depth                   : 8 bits
    Scan type                   : Progressive
    Bits/(Pixel*Frame)          : 0.445
    Stream size                 : 26.1 GiB (88%)
    Title                       : Full HD1080p [REMUX]
    Default                     : Yes
    Forced                      : Yes

    Audio #1
    ID                          : 2
    Format                      : AC-3
    Format/Info                 : Audio Coding 3
    Commercial name             : Dolby Digital
    Codec ID                    : A_AC3
    Duration                    : 2 h 48 min
    Bit rate mode               : Constant
    Bit rate                    : 640 kb/s
    Channel(s)                  : 6 channels
    Channel layout              : L R C LFE Ls Rs
    Sampling rate               : 48.0 kHz
    Frame rate                  : 31.250 FPS (1536 SPF)
    Bit depth                   : 16 bits
    Compression mode            : Lossy
    Stream size                 : 771 MiB (3%)
    Title                       : AC3_5.1_Bluray_Esp
    Language                    : Spanish
    Service kind                : Complete Main
    Default                     : Yes
    Forced                      : Yes

    Audio #2
    ID                          : 3
    Format                      : DTS XLL
    Format/Info                 : Digital Theater Systems
    Commercial name             : DTS-HD Master Audio
    Codec ID                    : A_DTS
    Duration                    : 2 h 48 min
    Bit rate mode               : Variable
    Bit rate                    : 2 422 kb/s
    Channel(s)                  : 6 channels
    Channel layout              : C L R Ls Rs LFE
    Sampling rate               : 48.0 kHz
    Frame rate                  : 93.750 FPS (512 SPF)
    Bit depth                   : 16 bits
    Compression mode            : Lossless
    Stream size                 : 2.85 GiB (10%)
    Title                       : DTS-HD_5.1_Bluray_Eng
    Language                    : English
    Default                     : No
    Forced                      : No

    Text #1
    ID                          : 4
    Format                      : PGS
    Muxing mode                 : zlib
    Codec ID                    : S_HDMV/PGS
    Codec ID/Info               : Picture based subtitle format used on BDs/HD-DVDs
    Duration                    : 2 h 22 min
    Bit rate                    : 25 b/s
    Count of elements           : 4
    Stream size                 : 26.6 KiB (0%)
    Title                       : Sub_Forzados [PGS]
    Language                    : Spanish
    Default                     : Yes
    Forced                      : Yes

    Text #2
    ID                          : 5
    Format                      : PGS
    Muxing mode                 : zlib
    Codec ID                    : S_HDMV/PGS
    Codec ID/Info               : Picture based subtitle format used on BDs/HD-DVDs
    Duration                    : 2 h 46 min
    Bit rate                    : 17.8 kb/s
    Count of elements           : 3017
    Stream size                 : 21.2 MiB (0%)
    Title                       : Sub_Esp [PGS]
    Language                    : Spanish
    Default                     : No
    Forced                      : No

    Text #3
    ID                          : 6
    Format                      : PGS
    Muxing mode                 : zlib
    Codec ID                    : S_HDMV/PGS
    Codec ID/Info               : Picture based subtitle format used on BDs/HD-DVDs
    Duration                    : 2 h 46 min
    Bit rate                    : 18.3 kb/s
    Count of elements           : 3032
    Stream size                 : 21.7 MiB (0%)
    Title                       : Sub_Eng [PGS]
    Language                    : English
    Default                     : No
    Forced                      : No

    Text #4
    ID                          : 7
    Format                      : UTF-8
    Codec ID                    : S_TEXT/UTF8
    Codec ID/Info               : UTF-8 Plain Text
    Duration                    : 2 h 22 min
    Bit rate                    : 0 b/s
    Count of elements           : 2
    Stream size                 : 48.0 Bytes (0%)
    Title                       : Sub_Forzados
    Language                    : Spanish
    Default                     : No
    Forced                      : No

    Text #5
    ID                          : 8
    Format                      : UTF-8
    Codec ID                    : S_TEXT/UTF8
    Codec ID/Info               : UTF-8 Plain Text
    Duration                    : 2 h 46 min
    Bit rate                    : 39 b/s
    Count of elements           : 1507
    Stream size                 : 48.6 KiB (0%)
    Title                       : Sub_Esp
    Language                    : Spanish
    Default                     : No
    Forced                      : No

    Menu
    00:00:00.000                : en:Suspended
    00:04:33.940                : en:A Dangerous Song
    00:10:01.809                : en:Welcome to Singapore
    00:19:58.280                : en:Cold
    00:26:07.482                : en:Captain's Commands
    00:32:47.340                : en:A Jack of All Trades
    00:39:40.336                : en:Davy Jones' Locker
    00:46:04.761                : en:Souls at Sea
    00:51:31.963                : en:Rock and Roll
    00:58:03.730                : en:The Last Pirate
    01:04:50.678                : en:An Old Friend
    01:12:46.820                : en:A New Captain
    01:17:54.878                : en:Bootstrap
    01:24:46.539                : en:Choosing a Side
    01:28:41.357                : en:Shipwreck Island
    01:33:34.150                : en:Brethren Court
    01:38:05.671                : en:Reunion
    01:41:52.981                : en:The Pirate Code
    01:48:12.652                : en:The Exchange
    01:53:13.286                : en:Pieces of Eight
    01:59:31.372                : en:A Fool's Chance
    02:05:52.211                : en:Leverage
    02:09:13.245                : en:Time to Fly
    02:13:53.525                : en:Community Chest
    02:23:19.257                : en:Good Business
    02:28:15.636                : en:Turning Away
    02:34:29.217                : en:Egregious
    02:38:48.560                : en:Credits
    02:48:30.100                : en:End

  • Peso: 29.7 GiB

Sinopsis

Descargar Piratas del Caribe – En el fin del mundo (2007) REMUX 1080p Latino. Siguiendo la estela de lo sucedido en “Piratas del caribe: El cofre del hombre muerto”, encontramos a nuestros héroes Will Turner y Elizabeth Swann aliados con el Capitán Barbossa, en una búsqueda desesperada para liberar al capitán Jack Sparrow de las manos de Davy Jones. Mientras, el terrorífico barco fantasma, el Holandés Errante, bajo el control de la Compañía de las Indias Orientales, causa estragos a lo largo de los Siete Mares. Will y Elizabeth, navegando en medio de la traición, la felonía y mares salvajes, deben seguir adelante rumbo a Singapur y enfrentarse al astuto pirata chino Sao Feng. Ahora, en los mismísimos confines de la tierra, todos ellos deben elegir un bando en la batalla final, ya que no sólo sus vidas y fortunas, sino también el futuro de la piratería clásica, pende de un hilo…

Resubido! 🙂

Ficha técnica

Video trailer de la película

Enlaces de descarga

Rip de Bluray

Descargar Piratas del Caribe – En el fin del mundo (2007) REMUX 1080p Latino




Aportes de DPeliculasHDmega la pass es:dpeliculashdmega.org Aportes de CinemaniaHD la pass es:cinemaniahdd.com
Guardado en : Acción , Aventura , Fantasía , Remux

Películas relacionadas

descargar Piratas del Caribe – En el fin del mundo (2007) REMUX 1080p Latino Full 1080p 1080p gratis, Piratas del Caribe – En el fin del mundo (2007) REMUX 1080p Latino Full 1080p mega 1 link, Piratas del Caribe – En el fin del mundo (2007) REMUX 1080p Latino Full 1080p pelicula completa, descargar Piratas del Caribe – En el fin del mundo (2007) REMUX 1080p Latino Full 1080p gratis en mega.

Piratas del Caribe – En el fin del mundo (2007) REMUX 1080p Latino pelicula full hd, Piratas del Caribe – En el fin del mundo (2007) REMUX 1080p Latino mega latino, Piratas del Caribe – En el fin del mundo (2007) REMUX 1080p Latino 4k latino, Piratas del Caribe – En el fin del mundo (2007) REMUX 1080p Latino pelicula completa, Piratas del Caribe – En el fin del mundo (2007) REMUX 1080p Latino descargar gratis, descargar Piratas del Caribe – En el fin del mundo (2007) REMUX 1080p Latino pelicula latino, Piratas del Caribe – En el fin del mundo (2007) REMUX 1080p Latino 1 link mega, Piratas del Caribe – En el fin del mundo (2007) REMUX 1080p Latino 1 link google drive, Piratas del Caribe – En el fin del mundo (2007) REMUX 1080p Latino hd 1080p latino.
Comentarios 0