×

¿Problemas para descargar con Mozilla, EDGE? Deshabilita la opción "Abrir vinculos en una pestaña nueva" tal como lo muestra ésta imagen.

Piratas del Caribe – El cofre de la muerte (2006) REMUX 1080p Latino

1.697 vistas

Información de Piratas del Caribe – El cofre de la muerte (2006) REMUX 1080p Latino

Datos de la película

  • Calidad: Full 1080p
  • Audio: Español Latino AC3 5.1 BLURAY - Ingles DTS 5.1 BLURAY
  • Subtitulos: Español Latino PGS - Ingles PGS
  • Resolución: 1920x1080p
  • Formato: MKV
  • Codec: H.264
  • Encoder: Dracarys
  • Mediainfo: Clic para Mostrar Datos Ver
  • P.o.t.C. - El Cofre de la Muerte (2006) REMUX 1080p Latino-CMHDD.mkv
    Format                      : Matroska
    Format version              : Version 4
    File size                   : 25.1 GiB
    Duration                    : 2 h 30 min
    Overall bit rate mode       : Variable
    Overall bit rate            : 23.8 Mb/s
    Movie name                  : CinemaniaHDD.Net
    Encoded date                : UTC 2020-01-12 05:41:33
    Writing application         : mkvmerge v38.0.0 ('The Silent Type') 64-bit
    Writing library             : libebml v1.3.9 + libmatroska v1.5.2
    Attachments                 : CINEMANIAHD.png

    Video
    ID                          : 1
    Format                      : AVC
    Format/Info                 : Advanced Video Codec
    Format profile              : High@L4.1
    Format settings             : CABAC / 3 Ref Frames
    Format settings, CABAC      : Yes
    Format settings, ReFrames   : 3 frames
    Format settings, GOP        : M=3, N=24
    Codec ID                    : V_MPEG4/ISO/AVC
    Duration                    : 2 h 30 min
    Bit rate mode               : Variable
    Bit rate                    : 19.0 Mb/s
    Maximum bit rate            : 40.0 Mb/s
    Width                       : 1 920 pixels
    Height                      : 1 080 pixels
    Display aspect ratio        : 16:9
    Frame rate mode             : Constant
    Frame rate                  : 23.976 (24000/1001) FPS
    Color space                 : YUV
    Chroma subsampling          : 4:2:0
    Bit depth                   : 8 bits
    Scan type                   : Progressive
    Bits/(Pixel*Frame)          : 0.382
    Stream size                 : 20.0 GiB (80%)
    Title                       : Full HD1080p [REMUX]
    Default                     : Yes
    Forced                      : Yes

    Audio #1
    ID                          : 2
    Format                      : AC-3
    Format/Info                 : Audio Coding 3
    Commercial name             : Dolby Digital
    Codec ID                    : A_AC3
    Duration                    : 2 h 30 min
    Bit rate mode               : Constant
    Bit rate                    : 640 kb/s
    Channel(s)                  : 6 channels
    Channel layout              : L R C LFE Ls Rs
    Sampling rate               : 48.0 kHz
    Frame rate                  : 31.250 FPS (1536 SPF)
    Bit depth                   : 16 bits
    Compression mode            : Lossy
    Stream size                 : 690 MiB (3%)
    Title                       : AC3_5.1_Bluray_Esp
    Language                    : Spanish
    Service kind                : Complete Main
    Default                     : Yes
    Forced                      : Yes

    Audio #2
    ID                          : 3
    Format                      : DTS XLL
    Format/Info                 : Digital Theater Systems
    Commercial name             : DTS-HD Master Audio
    Codec ID                    : A_DTS
    Duration                    : 2 h 30 min
    Bit rate mode               : Variable
    Bit rate                    : 4 188 kb/s
    Channel(s)                  : 6 channels
    Channel layout              : C L R Ls Rs LFE
    Sampling rate               : 48.0 kHz
    Frame rate                  : 93.750 FPS (512 SPF)
    Bit depth                   : 24 bits
    Compression mode            : Lossless
    Stream size                 : 4.41 GiB (18%)
    Title                       : DTS-HD_5.1_Bluray_Eng
    Language                    : English
    Default                     : No
    Forced                      : No

    Text #1
    ID                          : 4
    Format                      : PGS
    Muxing mode                 : zlib
    Codec ID                    : S_HDMV/PGS
    Codec ID/Info               : Picture based subtitle format used on BDs/HD-DVDs
    Duration                    : 2 h 21 min
    Bit rate                    : 46 b/s
    Count of elements           : 8
    Stream size                 : 48.0 KiB (0%)
    Title                       : Sub_Forzados [PGS]
    Language                    : Spanish
    Default                     : Yes
    Forced                      : Yes

    Text #2
    ID                          : 5
    Format                      : PGS
    Muxing mode                 : zlib
    Codec ID                    : S_HDMV/PGS
    Codec ID/Info               : Picture based subtitle format used on BDs/HD-DVDs
    Duration                    : 2 h 21 min
    Bit rate                    : 16.8 kb/s
    Count of elements           : 2444
    Stream size                 : 17.0 MiB (0%)
    Title                       : Sub_Esp [PGS]
    Language                    : Spanish
    Default                     : No
    Forced                      : No

    Text #3
    ID                          : 6
    Format                      : PGS
    Muxing mode                 : zlib
    Codec ID                    : S_HDMV/PGS
    Codec ID/Info               : Picture based subtitle format used on BDs/HD-DVDs
    Duration                    : 2 h 29 min
    Bit rate                    : 18.7 kb/s
    Count of elements           : 2970
    Stream size                 : 20.0 MiB (0%)
    Title                       : Sub_Eng [PGS]
    Language                    : English
    Default                     : No
    Forced                      : No

    Text #4
    ID                          : 7
    Format                      : UTF-8
    Codec ID                    : S_TEXT/UTF8
    Codec ID/Info               : UTF-8 Plain Text
    Duration                    : 2 h 21 min
    Bit rate                    : 0 b/s
    Count of elements           : 4
    Stream size                 : 89.0 Bytes (0%)
    Title                       : Sub_Forzados
    Language                    : Spanish
    Default                     : No
    Forced                      : No

    Text #5
    ID                          : 8
    Format                      : UTF-8
    Codec ID                    : S_TEXT/UTF8
    Codec ID/Info               : UTF-8 Plain Text
    Duration                    : 2 h 18 min
    Bit rate                    : 39 b/s
    Count of elements           : 1172
    Stream size                 : 40.5 KiB (0%)
    Title                       : Sub_Esp
    Language                    : Spanish
    Default                     : No
    Forced                      : No

    Menu
    00:00:00.000                : en:Introduction
    00:04:18.925                : en:"and a Bottle of Rum"
    00:09:53.009                : en:"Left Our Marks"
    00:12:13.441                : en:"Time Is Running Out"
    00:19:09.064                : en:"I Have Faith in You"
    00:23:53.473                : en:"Save Me"
    00:30:15.480                : en:Salvaging the Ship
    00:35:29.418                : en:"About Six Will Do"
    00:40:32.930                : en:"This Way, Lads"
    00:46:28.035                : en:The Ship Is Haunted
    00:50:25.564                : en:Touch of Destiny
    00:56:18.625                : en:The Flying Dutchman
    00:59:52.380                : en:Davy Jones
    01:05:45.191                : en:Tortuga
    01:11:55.853                : en:Mr. Turner
    01:17:04.327                : en:"Hide the Rum"
    01:22:10.258                : en:Game of Deception
    01:30:36.639                : en:Persuade Me
    01:34:38.172                : en:The Kraken
    01:39:21.830                : en:"Very Much Alike"
    01:44:52.410                : en:"Can't Let You Do That"
    01:49:14.714                : en:Fight for the Key
    01:54:55.805                : en:Beating Heart
    01:59:36.043                : en:"I Got a Jar of Dirt"
    02:04:59.908                : en:Load the Rum
    02:10:27.194                : en:Abandon Ship
    02:16:20.630                : en:"Something to Trade"
    02:21:04.789                : en:Credits
    02:30:39.030                : en:02:30:39.030

  • Peso: 25.1 GiB

Sinopsis

Descargar Piratas del Caribe – El cofre de la muerte (2006) REMUX 1080p Latino. Will Turner y Elizabeth Swann se van a casar, pero ambos son hechos prisioneros por Lord Cutler Beckett y acusados de haber liberado al Capitán Jack Sparrow. Para salvar su vida Will tendrá que encontrar a Jack y conseguir su misteriosa brújula, que esconde un gran poder además de la clave de una deuda de sangre del pirata con un temible y siniestro Davy Jones, el legendario Capitán del barco fantasma Holandés Errante.

links VIP Actualizados! 🙂

Ficha técnica

Video trailer de la película

Enlaces de descarga

Rip de Bluray

Descargar Piratas del Caribe – El cofre de la muerte (2006) REMUX 1080p Latino




Aportes de DPeliculasHDmega la pass es:dpeliculashdmega.org Aportes de CinemaniaHD la pass es:cinemaniahdd.com Aportes recientes:cinemaniahdd.net
Guardado en : Acción , Aventura , Fantasía , Remux

Películas relacionadas

descargar Piratas del Caribe – El cofre de la muerte (2006) REMUX 1080p Latino Full 1080p 1080p gratis, Piratas del Caribe – El cofre de la muerte (2006) REMUX 1080p Latino Full 1080p mega 1 link, Piratas del Caribe – El cofre de la muerte (2006) REMUX 1080p Latino Full 1080p pelicula completa, descargar Piratas del Caribe – El cofre de la muerte (2006) REMUX 1080p Latino Full 1080p gratis en mega.

Piratas del Caribe – El cofre de la muerte (2006) REMUX 1080p Latino pelicula full hd, Piratas del Caribe – El cofre de la muerte (2006) REMUX 1080p Latino mega latino, Piratas del Caribe – El cofre de la muerte (2006) REMUX 1080p Latino 4k latino, Piratas del Caribe – El cofre de la muerte (2006) REMUX 1080p Latino pelicula completa, Piratas del Caribe – El cofre de la muerte (2006) REMUX 1080p Latino descargar gratis, descargar Piratas del Caribe – El cofre de la muerte (2006) REMUX 1080p Latino pelicula latino, Piratas del Caribe – El cofre de la muerte (2006) REMUX 1080p Latino 1 link mega, Piratas del Caribe – El cofre de la muerte (2006) REMUX 1080p Latino 1 link google drive, Piratas del Caribe – El cofre de la muerte (2006) REMUX 1080p Latino hd 1080p latino.
Comentarios 0