×

¿Problemas para descargar con Mozilla, EDGE? Deshabilita la opción "Abrir vinculos en una pestaña nueva" tal como lo muestra ésta imagen.

Pinocho de Guillermo del Toro (2022) «CRITERION COLLECTION» REMUX 1080p Latino

86 vistas

Información de Pinocho de Guillermo del Toro (2022) «CRITERION COLLECTION» REMUX 1080p Latino

Datos de la película

  • Calidad: Full 1080p
  • Audio: Se especifica abajo de la Sinopsis
  • Subtitulos: Español Latino SRT- FORZADOS SRT
  • Resolución: 1920x1080p
  • Formato: MKV
  • Codec: H.264
  • Encoder: Melkor
  • Mediainfo: Clic para Mostrar Datos Ver
  • Pinocho de Guillermo del Toro (2022) Criterion REMUX 1080p Latino.mkv
    Format                      : Matroska
    Format version              : Version 4
    File size                   : 28.3 GiB
    Duration                    : 1 h 57 min
    Overall bit rate mode       : Variable
    Overall bit rate            : 34.4 Mb/s
    Movie name                  : Guillermo del Toro's Pinocchio (2022) CinemaniaHDD.Net
    Encoded date                : UTC 2023-12-11 03:30:39
    Writing application         : mkvmerge v56.1.0 ('My Friend') 64-bit
    Writing library             : libebml v1.4.2 + libmatroska v1.6.4
    Attachments                 : CINEMANIAHD.png
    Site                        : CinemaniaHDD.Net
    Uploader                    : Melkor

    Video
    ID                          : 1
    Format                      : AVC
    Format/Info                 : Advanced Video Codec
    Format profile              : High@L4.1
    Format settings             : CABAC / 4 Ref Frames
    Format settings, CABAC      : Yes
    Format settings, Reference  : 4 frames
    Codec ID                    : V_MPEG4/ISO/AVC
    Duration                    : 1 h 57 min
    Bit rate mode               : Variable
    Bit rate                    : 29.2 Mb/s
    Maximum bit rate            : 37.0 Mb/s
    Width                       : 1 920 pixels
    Height                      : 1 080 pixels
    Display aspect ratio        : 16:9
    Frame rate mode             : Constant
    Frame rate                  : 23.976 (24000/1001) FPS
    Color space                 : YUV
    Chroma subsampling          : 4:2:0
    Bit depth                   : 8 bits
    Scan type                   : Progressive
    Bits/(Pixel*Frame)          : 0.588
    Stream size                 : 24.1 GiB (85%)
    Title                       : REMUX HD1080p [CinemaniaHDD]
    Default                     : Yes
    Forced                      : Yes

    Audio #1
    ID                          : 2
    Format                      : AC-3
    Format/Info                 : Audio Coding 3
    Commercial name             : Dolby Digital
    Codec ID                    : A_AC3
    Duration                    : 1 h 57 min
    Bit rate mode               : Constant
    Bit rate                    : 640 kb/s
    Channel(s)                  : 6 channels
    Channel layout              : L R C LFE Ls Rs
    Sampling rate               : 48.0 kHz
    Frame rate                  : 31.250 FPS (1536 SPF)
    Compression mode            : Lossy
    Stream size                 : 539 MiB (2%)
    Title                       : Español Latino [CinemaniaHDD]
    Language                    : Spanish
    Service kind                : Complete Main
    Default                     : Yes
    Forced                      : Yes

    Audio #2
    ID                          : 3
    Format                      : MLP FBA 16-ch
    Format/Info                 : Meridian Lossless Packing FBA with 16-channel presentation
    Commercial name             : Dolby TrueHD with Dolby Atmos
    Codec ID                    : A_TRUEHD
    Duration                    : 1 h 57 min
    Bit rate mode               : Variable
    Bit rate                    : 3 833 kb/s
    Maximum bit rate            : 5 991 kb/s
    Channel(s)                  : 8 channels
    Channel layout              : L R C LFE Ls Rs Lb Rb
    Sampling rate               : 48.0 kHz
    Frame rate                  : 1 200.000 FPS (40 SPF)
    Compression mode            : Lossless
    Stream size                 : 3.15 GiB (11%)
    Title                       : Ingles [CinemaniaHDD]
    Language                    : English
    Default                     : No
    Forced                      : No
    Number of dynamic objects   : 11
    Bed channel count           : 1 channel
    Bed channel configuration   : LFE

    Audio #3
    ID                          : 4
    Format                      : AC-3
    Format/Info                 : Audio Coding 3
    Commercial name             : Dolby Digital
    Codec ID                    : A_AC3
    Duration                    : 1 h 57 min
    Bit rate mode               : Constant
    Bit rate                    : 640 kb/s
    Channel(s)                  : 6 channels
    Channel layout              : L R C LFE Ls Rs
    Sampling rate               : 48.0 kHz
    Frame rate                  : 31.250 FPS (1536 SPF)
    Compression mode            : Lossy
    Stream size                 : 539 MiB (2%)
    Title                       : Ingles-AC3 [CinemaniaHDD]
    Language                    : English
    Service kind                : Complete Main
    Default                     : No
    Forced                      : No

    Text #1
    ID                          : 5
    Format                      : UTF-8
    Codec ID                    : S_TEXT/UTF8
    Codec ID/Info               : UTF-8 Plain Text
    Duration                    : 1 h 56 min
    Bit rate                    : 0 b/s
    Count of elements           : 19
    Stream size                 : 509 Bytes (0%)
    Title                       : Forzados-SRT [CinemaniaHDD]
    Language                    : Spanish
    Default                     : Yes
    Forced                      : Yes

    Text #2
    ID                          : 6
    Format                      : UTF-8
    Codec ID                    : S_TEXT/UTF8
    Codec ID/Info               : UTF-8 Plain Text
    Duration                    : 1 h 56 min
    Bit rate                    : 51 b/s
    Count of elements           : 1486
    Stream size                 : 43.8 KiB (0%)
    Title                       : Español-SRT [CinemaniaHDD]
    Language                    : Spanish
    Default                     : No
    Forced                      : No

    Text #3
    ID                          : 7
    Format                      : UTF-8
    Codec ID                    : S_TEXT/UTF8
    Codec ID/Info               : UTF-8 Plain Text
    Duration                    : 1 h 48 min
    Bit rate                    : 45 b/s
    Count of elements           : 1364
    Stream size                 : 36.6 KiB (0%)
    Title                       : Ingles [CinemaniaHDD]
    Language                    : English
    Default                     : No
    Forced                      : No

    Menu
    00:00:00.000                : "My Son"
    00:06:08.410                : Going To Town
    00:11:26.686                : Geppetto's Creature
    00:18:42.747                : "Everything Is New to Me"
    00:24:31.887                : "Who controls you?"
    00:33:13.283                : "We Were a King Once"
    00:36:41.825                : "Sign here, here, and here"
    00:42:11.946                : The Carnival
    00:49:01.814                : Death's Door
    00:54:38.525                : A Burden
    01:01:39.154                : "Ciao Papa"
    01:05:21.417                : Out At Sea
    01:12:45.570                : Il Dulce
    01:16:38.594                : The Perfect Soldier
    01:21:17.164                : War Games
    01:30:01.438                : Reunited
    01:38:43.793                : Pinocchio's Choice
    01:47:13.510                : Epilogue
    01:49:16.425                : "Better Tomorrows"

  • Peso: 28.3 GiB

Sinopsis

Descargar Pinocho de Guillermo del Toro (2022) «CRITERION COLLECTION» REMUX 1080p Latino. Versión musical en animación stop motion del famoso cuento de ‘Pinocho’, ambientada en la Italia fascista, durante la década de 1930.

Español Latino AC3 5.1 Web – ingles THD 7.1 & Core AC3 5.1 BD

Ficha técnica

Video trailer de la película

Enlaces de descarga

Rip de Bluray

Descargar Pinocho de Guillermo del Toro (2022) «CRITERION COLLECTION» REMUX 1080p Latino




Aportes de DPeliculasHDmega la pass es:dpeliculashdmega.org Aportes de CinemaniaHD la pass es:cinemaniahdd.com Aportes recientes:cinemaniahdd.net
Guardado en : Animación , Drama , Familia , Fantasía , Remux

Películas relacionadas

descargar Pinocho de Guillermo del Toro (2022) «CRITERION COLLECTION» REMUX 1080p Latino Full 1080p 1080p gratis, Pinocho de Guillermo del Toro (2022) «CRITERION COLLECTION» REMUX 1080p Latino Full 1080p mega 1 link, Pinocho de Guillermo del Toro (2022) «CRITERION COLLECTION» REMUX 1080p Latino Full 1080p pelicula completa, descargar Pinocho de Guillermo del Toro (2022) «CRITERION COLLECTION» REMUX 1080p Latino Full 1080p gratis en mega.

Pinocho de Guillermo del Toro (2022) «CRITERION COLLECTION» REMUX 1080p Latino pelicula full hd, Pinocho de Guillermo del Toro (2022) «CRITERION COLLECTION» REMUX 1080p Latino mega latino, Pinocho de Guillermo del Toro (2022) «CRITERION COLLECTION» REMUX 1080p Latino 4k latino, Pinocho de Guillermo del Toro (2022) «CRITERION COLLECTION» REMUX 1080p Latino pelicula completa, Pinocho de Guillermo del Toro (2022) «CRITERION COLLECTION» REMUX 1080p Latino descargar gratis, descargar Pinocho de Guillermo del Toro (2022) «CRITERION COLLECTION» REMUX 1080p Latino pelicula latino, Pinocho de Guillermo del Toro (2022) «CRITERION COLLECTION» REMUX 1080p Latino 1 link mega, Pinocho de Guillermo del Toro (2022) «CRITERION COLLECTION» REMUX 1080p Latino 1 link google drive, Pinocho de Guillermo del Toro (2022) «CRITERION COLLECTION» REMUX 1080p Latino hd 1080p latino.
Comentarios 0