×

¿Problemas para descargar con Mozilla, EDGE? Deshabilita la opción "Abrir vinculos en una pestaña nueva" tal como lo muestra ésta imagen.

Pinocho (2019) REMUX 1080p Latino

181 vistas

Información de Pinocho (2019) REMUX 1080p Latino

Datos de la película

  • Calidad: Full 1080p
  • Audio: Se especifica abajo de la Sinopsis
  • Subtitulos: Español Latino SRT- FORZADOS SRT
  • Resolución: 1920x1080p
  • Formato: MKV
  • Codec: H.264
  • Encoder: Melkor
  • Mediainfo: Clic para Mostrar Datos Ver
  • Pinocho (2019) REMUX 1080p Latino.mkv
    Format                      : Matroska
    Format version              : Version 4
    File size                   : 33.2 GiB
    Duration                    : 2 h 5 min
    Overall bit rate mode       : Variable
    Overall bit rate            : 38.0 Mb/s
    Movie name                  : Pinocchio (2019) CinemaniaHDD.Net
    Encoded date                : UTC 2021-06-06 21:42:13
    Writing application         : mkvmerge v56.1.0 ('My Friend') 64-bit
    Writing library             : libebml v1.4.2 + libmatroska v1.6.4
    Attachments                 : CINEMANIAHD.png

    Video
    ID                          : 1
    Format                      : AVC
    Format/Info                 : Advanced Video Codec
    Format profile              : High@L4.1
    Format settings             : CABAC / 4 Ref Frames
    Format settings, CABAC      : Yes
    Format settings, Reference  : 4 frames
    Format settings, GOP        : M=3, N=12
    Codec ID                    : V_MPEG4/ISO/AVC
    Duration                    : 2 h 4 min
    Bit rate mode               : Variable
    Bit rate                    : 34.8 Mb/s
    Maximum bit rate            : 38.0 Mb/s
    Width                       : 1 920 pixels
    Height                      : 1 080 pixels
    Display aspect ratio        : 16:9
    Frame rate mode             : Constant
    Frame rate                  : 24.000 FPS
    Color space                 : YUV
    Chroma subsampling          : 4:2:0
    Bit depth                   : 8 bits
    Scan type                   : Progressive
    Bits/(Pixel*Frame)          : 0.700
    Stream size                 : 30.4 GiB (92%)
    Title                       : REMUX HD1080p [CinemaniaHDD]
    Language                    : Spanish
    Default                     : Yes
    Forced                      : No

    Audio #1
    ID                          : 2
    Format                      : AC-3
    Format/Info                 : Audio Coding 3
    Commercial name             : Dolby Digital
    Codec ID                    : A_AC3
    Duration                    : 2 h 4 min
    Bit rate mode               : Constant
    Bit rate                    : 448 kb/s
    Channel(s)                  : 6 channels
    Channel layout              : L R C LFE Ls Rs
    Sampling rate               : 48.0 kHz
    Frame rate                  : 31.250 FPS (1536 SPF)
    Compression mode            : Lossy
    Stream size                 : 401 MiB (1%)
    Title                       : Español Latino [CinemaniaHDD]
    Language                    : Spanish
    Service kind                : Complete Main
    Default                     : Yes
    Forced                      : Yes

    Audio #2
    ID                          : 3
    Format                      : DTS XLL
    Format/Info                 : Digital Theater Systems
    Commercial name             : DTS-HD Master Audio
    Codec ID                    : A_DTS
    Duration                    : 2 h 4 min
    Bit rate mode               : Variable
    Bit rate                    : 2 373 kb/s
    Channel(s)                  : 6 channels
    Channel layout              : C L R Ls Rs LFE
    Sampling rate               : 48.0 kHz
    Frame rate                  : 93.750 FPS (512 SPF)
    Bit depth                   : 16 bits
    Compression mode            : Lossless
    Stream size                 : 2.07 GiB (6%)
    Title                       : Italiano [CinemaniaHDD]
    Language                    : Italian
    Default                     : No
    Forced                      : No

    Audio #3
    ID                          : 4
    Format                      : E-AC-3
    Format/Info                 : Enhanced AC-3
    Commercial name             : Dolby Digital Plus
    Codec ID                    : A_EAC3
    Duration                    : 2 h 5 min
    Bit rate mode               : Constant
    Bit rate                    : 384 kb/s
    Channel(s)                  : 6 channels
    Channel layout              : L R C LFE Ls Rs
    Sampling rate               : 48.0 kHz
    Frame rate                  : 31.250 FPS (1536 SPF)
    Compression mode            : Lossy
    Delay relative to video     : 3 ms
    Stream size                 : 343 MiB (1%)
    Title                       : Español Latino EAC3 [CinemaniaHDD]
    Language                    : Spanish
    Service kind                : Complete Main
    Default                     : No
    Forced                      : No

    Text #1
    ID                          : 5
    Format                      : UTF-8
    Codec ID                    : S_TEXT/UTF8
    Codec ID/Info               : UTF-8 Plain Text
    Duration                    : 1 h 54 min
    Bit rate                    : 0 b/s
    Count of elements           : 3
    Stream size                 : 67.0 Bytes (0%)
    Title                       : Forzados-SRT [CinemaniaHDD]
    Language                    : Spanish
    Default                     : Yes
    Forced                      : No

    Text #2
    ID                          : 6
    Format                      : UTF-8
    Codec ID                    : S_TEXT/UTF8
    Codec ID/Info               : UTF-8 Plain Text
    Duration                    : 1 h 54 min
    Bit rate                    : 50 b/s
    Count of elements           : 1651
    Stream size                 : 42.4 KiB (0%)
    Title                       : Español-SRT [CinemaniaHDD]
    Language                    : Spanish
    Default                     : No
    Forced                      : No

    Text #3
    ID                          : 7
    Format                      : UTF-8
    Codec ID                    : S_TEXT/UTF8
    Codec ID/Info               : UTF-8 Plain Text
    Duration                    : 1 h 54 min
    Bit rate                    : 49 b/s
    Count of elements           : 1298
    Stream size                 : 41.7 KiB (0%)
    Title                       : Ingles-SRT [CinemaniaHDD]
    Language                    : English
    Default                     : No
    Forced                      : No

    Menu
    00:00:00.000                : Craftsmanship
    00:11:25.917                : Time To Live
    00:20:42.917                : Family
    00:31:30.458                : The Fox And The Cat
    00:40:53.250                : By A Thread
    00:50:48.000                : Good Fairy
    00:59:33.833                : Field Of Miracles
    01:10:38.208                : Schooldays
    01:19:59.833                : Many Friends
    01:29:35.250                : Manege Free
    01:40:35.750                : Big Fish
    01:52:54.583                : Joyful

  • Peso: 33.2 GiB

Sinopsis

Descargar Pinocho (2019) REMUX 1080p Latino. En esta adaptación en vivo del amado cuento de hadas, el viejo tallador de madera Geppetto da forma a un títere de madera, Pinocho, que mágicamente cobra vida. Pinocho anhela la aventura y se extravía fácilmente, encontrándose con bestias mágicas, espectáculos fantásticos, mientras hace amigos y enemigos a lo largo de su viaje. Sin embargo, su sueño es convertirse en un niño de verdad, lo que solo puede hacerse realidad si finalmente cambia de rumbo.

Español latino EAC3 & AC3 5.1 – Italiano DTS-HD 5.1 Bluray

Ficha técnica

Video trailer de la película

Enlaces de descarga

Rip de Bluray

Descargar Pinocho (2019) REMUX 1080p Latino




Aportes de DPeliculasHDmega la pass es:dpeliculashdmega.org Aportes de CinemaniaHD la pass es:cinemaniahdd.com
Guardado en : Aventura , Drama , Fantasía , Remux

Películas relacionadas

descargar Pinocho (2019) REMUX 1080p Latino Full 1080p 1080p gratis, Pinocho (2019) REMUX 1080p Latino Full 1080p mega 1 link, Pinocho (2019) REMUX 1080p Latino Full 1080p pelicula completa, descargar Pinocho (2019) REMUX 1080p Latino Full 1080p gratis en mega.

Pinocho (2019) REMUX 1080p Latino pelicula full hd, Pinocho (2019) REMUX 1080p Latino mega latino, Pinocho (2019) REMUX 1080p Latino 4k latino, Pinocho (2019) REMUX 1080p Latino pelicula completa, Pinocho (2019) REMUX 1080p Latino descargar gratis, descargar Pinocho (2019) REMUX 1080p Latino pelicula latino, Pinocho (2019) REMUX 1080p Latino 1 link mega, Pinocho (2019) REMUX 1080p Latino 1 link google drive, Pinocho (2019) REMUX 1080p Latino hd 1080p latino.
Comentarios 0