×

¿Problemas para descargar con Mozilla, EDGE? Deshabilita la opción "Abrir vinculos en una pestaña nueva" tal como lo muestra ésta imagen.

Pinocho (2019) PLACEBO Full HD 1080p Latino

245 vistas

Información de Pinocho (2019) PLACEBO Full HD 1080p Latino

Datos de la película

  • Calidad: Full 1080p
  • Audio: Se especifica abajo de la Sinopsis
  • Subtitulos: Español Latino SRT- FORZADOS SRT
  • Resolución: 1920x1080p
  • Formato: MKV
  • Codec: H.264
  • Encoder: Melkor
  • Mediainfo: Clic para Mostrar Datos Ver
  • Pinocho (2019) PLACEBO 1080p Latino.mkv
    Format                      : Matroska
    Format version              : Version 4
    File size                   : 5.03 GiB
    Duration                    : 2 h 5 min
    Overall bit rate            : 5 757 kb/s
    Movie name                  : Pinocchio (2019) CinemaniaHDD.Net
    Encoded date                : UTC 2021-06-08 03:15:47
    Writing application         : mkvmerge v56.1.0 ('My Friend') 64-bit
    Writing library             : libebml v1.4.2 + libmatroska v1.6.4
    Attachments                 : CINEMANIAHD.png

    Video
    ID                          : 1
    Format                      : AVC
    Format/Info                 : Advanced Video Codec
    Format profile              : High@L4.1
    Format settings             : CABAC / 4 Ref Frames
    Format settings, CABAC      : Yes
    Format settings, Reference  : 4 frames
    Codec ID                    : V_MPEG4/ISO/AVC
    Duration                    : 2 h 4 min
    Bit rate                    : 3 415 kb/s
    Width                       : 1 920 pixels
    Height                      : 1 080 pixels
    Display aspect ratio        : 16:9
    Frame rate mode             : Constant
    Frame rate                  : 24.000 FPS
    Color space                 : YUV
    Chroma subsampling          : 4:2:0
    Bit depth                   : 8 bits
    Scan type                   : Progressive
    Bits/(Pixel*Frame)          : 0.069
    Stream size                 : 2.98 GiB (59%)
    Title                       : Full HD1080p [CinemaniaHDD]
    Writing library             : x264 core 157 r2935 545de2f
    Encoding settings           : cabac=1 / ref=4 / deblock=1:0:0 / analyse=0x3:0x133 / me=tesa / subme=11 / psy=1 / psy_rd=1.00:0.00 / mixed_ref=1 / me_range=24 / chroma_me=1 / trellis=2 / 8x8dct=1 / cqm=0 / deadzone=21,11 / fast_pskip=0 / chroma_qp_offset=-2 / threads=24 / lookahead_threads=6 / sliced_threads=0 / nr=0 / decimate=1 / interlaced=0 / bluray_compat=0 / constrained_intra=0 / bframes=16 / b_pyramid=2 / b_adapt=2 / b_bias=0 / direct=3 / weightb=1 / open_gop=0 / weightp=2 / keyint=240 / keyint_min=24 / scenecut=40 / intra_refresh=0 / rc_lookahead=60 / rc=crf / mbtree=1 / crf=19.0 / qcomp=0.60 / qpmin=0 / qpmax=69 / qpstep=4 / vbv_maxrate=62500 / vbv_bufsize=78125 / crf_max=0.0 / nal_hrd=none / filler=0 / ip_ratio=1.40 / aq=1:1.00
    Default                     : Yes
    Forced                      : Yes
    Color range                 : Limited
    Color primaries             : BT.709
    Transfer characteristics    : BT.709
    Matrix coefficients         : BT.709

    Audio #1
    ID                          : 2
    Format                      : AC-3
    Format/Info                 : Audio Coding 3
    Commercial name             : Dolby Digital
    Codec ID                    : A_AC3
    Duration                    : 2 h 4 min
    Bit rate mode               : Constant
    Bit rate                    : 448 kb/s
    Channel(s)                  : 6 channels
    Channel layout              : L R C LFE Ls Rs
    Sampling rate               : 48.0 kHz
    Frame rate                  : 31.250 FPS (1536 SPF)
    Compression mode            : Lossy
    Stream size                 : 401 MiB (8%)
    Title                       : Español Latino [CinemaniaHDD]
    Language                    : Spanish
    Service kind                : Complete Main
    Default                     : Yes
    Forced                      : Yes

    Audio #2
    ID                          : 3
    Format                      : DTS
    Format/Info                 : Digital Theater Systems
    Codec ID                    : A_DTS
    Duration                    : 2 h 4 min
    Bit rate mode               : Constant
    Bit rate                    : 1 509 kb/s
    Channel(s)                  : 6 channels
    Channel layout              : C L R Ls Rs LFE
    Sampling rate               : 48.0 kHz
    Frame rate                  : 93.750 FPS (512 SPF)
    Bit depth                   : 24 bits
    Compression mode            : Lossy
    Stream size                 : 1.32 GiB (26%)
    Title                       : Italiano [CinemaniaHDD]
    Language                    : Italian
    Default                     : No
    Forced                      : No

    Audio #3
    ID                          : 4
    Format                      : E-AC-3
    Format/Info                 : Enhanced AC-3
    Commercial name             : Dolby Digital Plus
    Codec ID                    : A_EAC3
    Duration                    : 2 h 5 min
    Bit rate mode               : Constant
    Bit rate                    : 384 kb/s
    Channel(s)                  : 6 channels
    Channel layout              : L R C LFE Ls Rs
    Sampling rate               : 48.0 kHz
    Frame rate                  : 31.250 FPS (1536 SPF)
    Compression mode            : Lossy
    Delay relative to video     : 3 ms
    Stream size                 : 343 MiB (7%)
    Title                       : Español Latino EAC3 [CinemaniaHDD]
    Language                    : Spanish
    Service kind                : Complete Main
    Default                     : No
    Forced                      : No

    Text #1
    ID                          : 5
    Format                      : UTF-8
    Codec ID                    : S_TEXT/UTF8
    Codec ID/Info               : UTF-8 Plain Text
    Duration                    : 1 h 54 min
    Bit rate                    : 0 b/s
    Count of elements           : 3
    Stream size                 : 67.0 Bytes (0%)
    Title                       : Forzados-SRT [CinemaniaHDD]
    Language                    : Spanish
    Default                     : Yes
    Forced                      : No

    Text #2
    ID                          : 6
    Format                      : UTF-8
    Codec ID                    : S_TEXT/UTF8
    Codec ID/Info               : UTF-8 Plain Text
    Duration                    : 1 h 54 min
    Bit rate                    : 50 b/s
    Count of elements           : 1651
    Stream size                 : 42.4 KiB (0%)
    Title                       : Español-SRT [CinemaniaHDD]
    Language                    : Spanish
    Default                     : No
    Forced                      : No

    Text #3
    ID                          : 7
    Format                      : UTF-8
    Codec ID                    : S_TEXT/UTF8
    Codec ID/Info               : UTF-8 Plain Text
    Duration                    : 1 h 54 min
    Bit rate                    : 49 b/s
    Count of elements           : 1298
    Stream size                 : 41.7 KiB (0%)
    Title                       : Ingles-SRT [CinemaniaHDD]
    Language                    : English
    Default                     : No
    Forced                      : No

    Menu
    00:00:00.000                : Craftsmanship
    00:11:25.917                : Time To Live
    00:20:42.917                : Family
    00:31:30.458                : The Fox And The Cat
    00:40:53.250                : By A Thread
    00:50:48.000                : Good Fairy
    00:59:33.833                : Field Of Miracles
    01:10:38.208                : Schooldays
    01:19:59.833                : Many Friends
    01:29:35.250                : Manege Free
    01:40:35.750                : Big Fish
    01:52:54.583                : Joyful

  • Peso: 5.03 GiB

Sinopsis

Descargar Pinocho (2019) PLACEBO Full HD 1080p Latino. En esta adaptación en vivo del amado cuento de hadas, el viejo tallador de madera Geppetto da forma a un títere de madera, Pinocho, que mágicamente cobra vida. Pinocho anhela la aventura y se extravía fácilmente, encontrándose con bestias mágicas, espectáculos fantásticos, mientras hace amigos y enemigos a lo largo de su viaje. Sin embargo, su sueño es convertirse en un niño de verdad, lo que solo puede hacerse realidad si finalmente cambia de rumbo.

Español latino EAC3 & AC3 5.1 – Italiano DTS 5.1 Bluray

Ficha técnica

Video trailer de la película

Enlaces de descarga

Rip de Bluray

Descargar Pinocho (2019) PLACEBO Full HD 1080p Latino




Aportes de DPeliculasHDmega la pass es:dpeliculashdmega.org Aportes de CinemaniaHD la pass es:cinemaniahdd.com

Películas relacionadas

descargar Pinocho (2019) PLACEBO Full HD 1080p Latino Full 1080p 1080p gratis, Pinocho (2019) PLACEBO Full HD 1080p Latino Full 1080p mega 1 link, Pinocho (2019) PLACEBO Full HD 1080p Latino Full 1080p pelicula completa, descargar Pinocho (2019) PLACEBO Full HD 1080p Latino Full 1080p gratis en mega.

Pinocho (2019) PLACEBO Full HD 1080p Latino pelicula full hd, Pinocho (2019) PLACEBO Full HD 1080p Latino mega latino, Pinocho (2019) PLACEBO Full HD 1080p Latino 4k latino, Pinocho (2019) PLACEBO Full HD 1080p Latino pelicula completa, Pinocho (2019) PLACEBO Full HD 1080p Latino descargar gratis, descargar Pinocho (2019) PLACEBO Full HD 1080p Latino pelicula latino, Pinocho (2019) PLACEBO Full HD 1080p Latino 1 link mega, Pinocho (2019) PLACEBO Full HD 1080p Latino 1 link google drive, Pinocho (2019) PLACEBO Full HD 1080p Latino hd 1080p latino.
Comentarios 0