×

¿Problemas para descargar con Mozilla, EDGE? Deshabilita la opción "Abrir vinculos en una pestaña nueva" tal como lo muestra ésta imagen.

Pie Pequeño en busca del valle encantado (1988) REMUX 1080p Latino – CMHDD

308 vistas

Información de Pie Pequeño en busca del valle encantado (1988) REMUX 1080p Latino – CMHDD

Datos de la película

  • Calidad: Full 1080p
  • Audio: Español Latino DTS 5.1 BLURAY - Ingles DTS 5.1 BLURAY
  • Subtitulos: Español Latino SRT
  • Resolución: 1920x1080p
  • Formato: MKV
  • Codec: H.264
  • Encoder: Dracarys
  • Mediainfo: Clic para Mostrar Datos Ver
  • Format                      : Matroska
    Format version              : Version 4
    File size                   : 16.4 GiB
    Duration                    : 1 h 8 min
    Overall bit rate mode       : Variable
    Overall bit rate            : 34.1 Mb/s
    Movie name                  : Pie Pequeño en busca del valle encantado (1988) REMUX 1080p Latino - CMHDD
    Encoded date                : UTC 2020-06-22 20:57:25
    Writing application         : mkvmerge v46.0.0 ('No Deeper Escape') 64-bit
    Writing library             : libebml v1.3.10 + libmatroska v1.5.2

    Video
    ID                          : 1
    Format                      : AVC
    Format/Info                 : Advanced Video Codec
    Format profile              : High@L4.1
    Format settings             : CABAC / 4 Ref Frames
    Format settings, CABAC      : Yes
    Format settings, Reference  : 4 frames
    Codec ID                    : V_MPEG4/ISO/AVC
    Duration                    : 1 h 8 min
    Bit rate mode               : Variable
    Bit rate                    : 29.2 Mb/s
    Maximum bit rate            : 30.0 Mb/s
    Width                       : 1 920 pixels
    Height                      : 1 080 pixels
    Display aspect ratio        : 16:9
    Frame rate mode             : Constant
    Frame rate                  : 23.976 (24000/1001) FPS
    Color space                 : YUV
    Chroma subsampling          : 4:2:0
    Bit depth                   : 8 bits
    Scan type                   : Progressive
    Bits/(Pixel*Frame)          : 0.587
    Stream size                 : 14.0 GiB (85%)
    Default                     : Yes
    Forced                      : No

    Audio #1
    ID                          : 2
    Format                      : DTS
    Format/Info                 : Digital Theater Systems
    Codec ID                    : A_DTS
    Duration                    : 1 h 8 min
    Bit rate mode               : Constant
    Bit rate                    : 768 kb/s
    Channel(s)                  : 6 channels
    Channel layout              : C L R Ls Rs LFE
    Sampling rate               : 48.0 kHz
    Frame rate                  : 93.750 FPS (512 SPF)
    Bit depth                   : 24 bits
    Compression mode            : Lossy
    Stream size                 : 378 MiB (2%)
    Language                    : Spanish
    Default                     : Yes
    Forced                      : No

    Audio #2
    ID                          : 3
    Format                      : DTS XLL
    Format/Info                 : Digital Theater Systems
    Commercial name             : DTS-HD Master Audio
    Codec ID                    : A_DTS
    Duration                    : 1 h 8 min
    Bit rate mode               : Variable
    Bit rate                    : 4 180 kb/s
    Channel(s)                  : 6 channels
    Channel layout              : C L R Ls Rs LFE
    Sampling rate               : 48.0 kHz
    Frame rate                  : 93.750 FPS (512 SPF)
    Bit depth                   : 24 bits
    Compression mode            : Lossless
    Stream size                 : 2.01 GiB (12%)
    Language                    : English
    Default                     : No
    Forced                      : No

    Text #1
    ID                          : 4
    Format                      : PGS
    Muxing mode                 : zlib
    Codec ID                    : S_HDMV/PGS
    Codec ID/Info               : Picture based subtitle format used on BDs/HD-DVDs
    Duration                    : 1 h 6 min
    Bit rate                    : 19.3 kb/s
    Count of elements           : 1149
    Stream size                 : 9.16 MiB (0%)
    Language                    : Spanish
    Default                     : Yes
    Forced                      : No

    Text #2
    ID                          : 5
    Format                      : UTF-8
    Codec ID                    : S_TEXT/UTF8
    Codec ID/Info               : UTF-8 Plain Text
    Duration                    : 1 h 6 min
    Bit rate                    : 30 b/s
    Count of elements           : 574
    Stream size                 : 14.8 KiB (0%)
    Language                    : Spanish
    Default                     : No
    Forced                      : No

  • Peso: 16.4 GiB

Sinopsis

Aclamada película de animación que narra las aventuras de unos pequeños dinosaurios en su viaje por alcanzar el Gran Valle, el único sitio de la tierra que todavía no ha sido alcanzado por una plaga devastadora

Ficha técnica

Video trailer de la película

Enlaces de descarga

Rip de Bluray

Descargar Pie Pequeño en busca del valle encantado (1988) REMUX 1080p Latino – CMHDD




Aportes de DPeliculasHDmega la pass es:dpeliculashdmega.org Aportes de CinemaniaHD la pass es:cinemaniahdd.com
Guardado en : Animación , Aventura , Familia , Remux

Películas relacionadas

  • Zola (2020) REMUX 1080p Latino

    Zola (2020) REMUX 1080p Latino

    2020
    Zola (2020) REMUX 1080p Latino

    1h 26m 2020

    Descargar Zola (2020) REMUX 1080p Latino. Una camarera accede a acompañar a una bailarina exótica,...

    Director: Sheri Davani

    Género: Comedia

    Actores: Ts Madison

  • Hocus Pocus: Abracadabra (1993) 1080p Latino

    Hocus Pocus: Abracadabra (1993) 1080p Latino

    1993
    Hocus Pocus: Abracadabra (1993) 1080p Latino

    1h 36m 1993

    Descargar Hocus Pocus: Abracadabra (1993) 1080p Latino. Tres brujas del siglo XII son invocadas durante...

    Director: Kenny Ortega

    Género: Comedia

    Actores: Vinessa Shaw

  • Hocus Pocus: Abracadabra (1993) REMUX 1080p Latino

    Hocus Pocus: Abracadabra (1993) REMUX 1080p Latino

    1993
    Hocus Pocus: Abracadabra (1993) REMUX 1080p Latino

    1h 36m 1993

    Descargar Hocus Pocus: Abracadabra (1993) REMUX 1080p Latino. Tres brujas del siglo XII son invocadas...

    Director: Kenny Ortega

    Género: Comedia

    Actores: Vinessa Shaw

descargar Pie Pequeño en busca del valle encantado (1988) REMUX 1080p Latino – CMHDD Full 1080p 1080p gratis, Pie Pequeño en busca del valle encantado (1988) REMUX 1080p Latino – CMHDD Full 1080p mega 1 link, Pie Pequeño en busca del valle encantado (1988) REMUX 1080p Latino – CMHDD Full 1080p pelicula completa, descargar Pie Pequeño en busca del valle encantado (1988) REMUX 1080p Latino – CMHDD Full 1080p gratis en mega.

Pie Pequeño en busca del valle encantado (1988) REMUX 1080p Latino – CMHDD pelicula full hd, Pie Pequeño en busca del valle encantado (1988) REMUX 1080p Latino – CMHDD mega latino, Pie Pequeño en busca del valle encantado (1988) REMUX 1080p Latino – CMHDD 4k latino, Pie Pequeño en busca del valle encantado (1988) REMUX 1080p Latino – CMHDD pelicula completa, Pie Pequeño en busca del valle encantado (1988) REMUX 1080p Latino – CMHDD descargar gratis, descargar Pie Pequeño en busca del valle encantado (1988) REMUX 1080p Latino – CMHDD pelicula latino, Pie Pequeño en busca del valle encantado (1988) REMUX 1080p Latino – CMHDD 1 link mega, Pie Pequeño en busca del valle encantado (1988) REMUX 1080p Latino – CMHDD 1 link google drive, Pie Pequeño en busca del valle encantado (1988) REMUX 1080p Latino – CMHDD hd 1080p latino.
Comentarios 0