×

¿Problemas para descargar con Mozilla, EDGE? Deshabilita la opción "Abrir vinculos en una pestaña nueva" tal como lo muestra ésta imagen.

Pico de Neblina [Joint Venture] (2019) Primera Temporada HBO WEB-DL 1080p Latino

2.467 vistas

Información de Pico de Neblina [Joint Venture] (2019) Primera Temporada HBO WEB-DL 1080p Latino

Datos de la película

  • Calidad: 1080p
  • Audio: Se especifica abajo de la Sinopsis
  • Subtitulos: Español Latino SRT - Ingles SRT
  • Resolución: 1920x1080
  • Formato: MKV
  • Codec: H.264
  • Encoder: cinemaniahdd
  • Mediainfo: Clic para Mostrar Datos Ver
  • Pico de Neblina (Joint Venture) T01E01 HBO WEB-DL 1080p Latino [CNMNHDD].mkv
    Format                      : Matroska
    Format version              : Version 4
    File size                   : 3.84 GiB
    Duration                    : 58 min 44 s
    Overall bit rate mode       : Variable
    Overall bit rate            : 9 349 kb/s
    Movie name                  : Pico de Neblina (Joint Venture) S01E01 - Seed [1080p] - CinemaniaHDD.Net
    Encoded date                : UTC 2022-07-04 01:11:39
    Writing application         : mkvmerge v58.0.0 ('Supper's Ready') 32-bit
    Writing library             : libebml v1.4.2 + libmatroska v1.6.4

    Video
    ID                          : 1
    Format                      : AVC
    Format/Info                 : Advanced Video Codec
    Format profile              : High@L4
    Format settings             : CABAC / 4 Ref Frames
    Format settings, CABAC      : Yes
    Format settings, Reference  : 4 frames
    Codec ID                    : V_MPEG4/ISO/AVC
    Duration                    : 58 min 44 s
    Bit rate mode               : Variable
    Bit rate                    : 8 250 kb/s
    Maximum bit rate            : 12.4 Mb/s
    Width                       : 1 920 pixels
    Height                      : 1 080 pixels
    Display aspect ratio        : 16:9
    Frame rate mode             : Constant
    Frame rate                  : 23.976 (24000/1001) FPS
    Color space                 : YUV
    Chroma subsampling          : 4:2:0
    Bit depth                   : 8 bits
    Scan type                   : Progressive
    Bits/(Pixel*Frame)          : 0.166
    Stream size                 : 3.36 GiB (88%)
    Title                       : CinemaniaHDD
    Writing library             : x264 core 157 r2965 861cec4
    Encoding settings           : cabac=1 / ref=4 / deblock=1:0:0 / analyse=0x3:0x113 / me=hex / subme=7 / psy=1 / psy_rd=1.00:0.00 / mixed_ref=1 / me_range=16 / chroma_me=1 / trellis=1 / 8x8dct=1 / cqm=0 / deadzone=21,11 / fast_pskip=1 / chroma_qp_offset=-2 / threads=34 / lookahead_threads=5 / sliced_threads=0 / nr=0 / decimate=1 / interlaced=0 / bluray_compat=0 / constrained_intra=0 / bframes=3 / b_pyramid=2 / b_adapt=1 / b_bias=0 / direct=1 / weightb=1 / open_gop=0 / weightp=2 / keyint=96 / keyint_min=96 / scenecut=40 / intra_refresh=0 / rc_lookahead=40 / rc=2pass / mbtree=1 / bitrate=8250 / ratetol=1.0 / qcomp=0.60 / qpmin=0 / qpmax=69 / qpstep=4 / cplxblur=20.0 / qblur=0.5 / vbv_maxrate=12375 / vbv_bufsize=6187 / nal_hrd=vbr / filler=0 / ip_ratio=1.40 / aq=1:1.00
    Default                     : Yes
    Forced                      : No
    Color range                 : Limited
    Color primaries             : BT.709
    Transfer characteristics    : BT.709
    Matrix coefficients         : BT.709

    Audio #1
    ID                          : 2
    Format                      : AC-3
    Format/Info                 : Audio Coding 3
    Commercial name             : Dolby Digital
    Codec ID                    : A_AC3
    Duration                    : 58 min 44 s
    Bit rate mode               : Constant
    Bit rate                    : 384 kb/s
    Channel(s)                  : 6 channels
    Channel layout              : L R C LFE Ls Rs
    Sampling rate               : 48.0 kHz
    Frame rate                  : 31.250 FPS (1536 SPF)
    Compression mode            : Lossy
    Stream size                 : 161 MiB (4%)
    Title                       : Español latino [CinemaniaHDD]
    Language                    : Spanish
    Service kind                : Complete Main
    Default                     : Yes
    Forced                      : No

    Audio #2
    ID                          : 3
    Format                      : AC-3
    Format/Info                 : Audio Coding 3
    Commercial name             : Dolby Digital
    Codec ID                    : A_AC3
    Duration                    : 58 min 44 s
    Bit rate mode               : Constant
    Bit rate                    : 384 kb/s
    Channel(s)                  : 6 channels
    Channel layout              : L R C LFE Ls Rs
    Sampling rate               : 48.0 kHz
    Frame rate                  : 31.250 FPS (1536 SPF)
    Compression mode            : Lossy
    Stream size                 : 161 MiB (4%)
    Title                       : Portugues [CinemaniaHDD]
    Language                    : Portuguese
    Service kind                : Complete Main
    Default                     : No
    Forced                      : No

    Audio #3
    ID                          : 4
    Format                      : AC-3
    Format/Info                 : Audio Coding 3
    Commercial name             : Dolby Digital
    Codec ID                    : A_AC3
    Duration                    : 58 min 44 s
    Bit rate mode               : Constant
    Bit rate                    : 384 kb/s
    Channel(s)                  : 2 channels
    Channel layout              : L R
    Sampling rate               : 48.0 kHz
    Frame rate                  : 31.250 FPS (1536 SPF)
    Compression mode            : Lossy
    Stream size                 : 161 MiB (4%)
    Title                       : Inglés [CinemaniaHDD]
    Language                    : English
    Service kind                : Complete Main
    Default                     : No
    Forced                      : No

    Text #1
    ID                          : 5
    Format                      : UTF-8
    Codec ID                    : S_TEXT/UTF8
    Codec ID/Info               : UTF-8 Plain Text
    Duration                    : 56 min 8 s
    Bit rate                    : 63 b/s
    Count of elements           : 804
    Stream size                 : 26.3 KiB (0%)
    Title                       : Español latino [CinemaniaHDD]
    Language                    : Spanish
    Default                     : No
    Forced                      : No

    Text #2
    ID                          : 6
    Format                      : UTF-8
    Codec ID                    : S_TEXT/UTF8
    Codec ID/Info               : UTF-8 Plain Text
    Duration                    : 55 min 27 s
    Bit rate                    : 60 b/s
    Count of elements           : 820
    Stream size                 : 24.7 KiB (0%)
    Title                       : Inglés [CinemaniaHDD]
    Language                    : English
    Default                     : No
    Forced                      : No

     

  • Peso: 3.84 GiB Aprox ---- 35 GiB in 10 Chapters.

Sinopsis

Cuando la marihuana es legalizada en Brasil, Biriba ve cómo sus clientes disminuyen rápidamente. Mientras lucha por mantener a su familia, la vida lo coloca ante un gran dilema: aceptar la propuesta de su mejor amigo y sumergirse aún más en el mundo del crimen, o asociarse con un dudoso cliente y probar su suerte en el mundo de la legalidad.

Español Latino AC3 5.1 WEB-DL – Portugues AC3 5.1 (Original) WEB-DL – Ingles AC3 2.0 WEB-DL

Ficha técnica

  • Titulo original: Pico da Neblina
  • Fecha de lanzamiento: 04-08-2019 (BR)
  • Género: Drama, HBO, Series

Video trailer de la película

Enlaces de descarga

Rip de Bluray

Descargar Pico de Neblina [Joint Venture] (2019) Primera Temporada HBO WEB-DL 1080p Latino




Aportes de DPeliculasHDmega la pass es:dpeliculashdmega.org Aportes de CinemaniaHD la pass es:cinemaniahdd.com
Guardado en : Drama , HBO , Series

Películas relacionadas

  • El discurso del Rey (2010) 1080p Latino

    El discurso del Rey (2010) 1080p Latino

    2010
    El discurso del Rey (2010) 1080p Latino

    1h 58m 2010

    Descargar El discurso del Rey (2010) 1080p Latino. El duque de York se convirtió en rey de Gran Bretaña...

    Director: Tom Hooper

    Género: Drama

    Actores: Tony Earnshaw

  • El discurso del Rey (2010) Full HD 1080p Latino

    El discurso del Rey (2010) Full HD 1080p Latino

    2010
    El discurso del Rey (2010) Full HD 1080p Latino

    1h 58m 2010

    Descargar El discurso del Rey (2010) Full HD 1080p Latino. El duque de York se convirtió en rey de Gran...

    Director: Tom Hooper

    Género: Drama

    Actores: Tony Earnshaw

  • El discurso del Rey (2010) REMUX 1080p Latino

    El discurso del Rey (2010) REMUX 1080p Latino

    2010
    El discurso del Rey (2010) REMUX 1080p Latino

    1h 58m 2010

    Descargar El discurso del Rey (2010) REMUX 1080p Latino. El duque de York se convirtió en rey de Gran...

    Director: Tom Hooper

    Género: Drama

    Actores: Tony Earnshaw

  • 8 Mile (2002) REMUX 4K HDR Latino – CMHDD

    8 Mile (2002) REMUX 4K HDR Latino – CMHDD

    2002
    8 Mile (2002) REMUX 4K HDR Latino – CMHDD

    1h 50m 2002

    Detroit, 1995. La promesa de potencia industrial se ha transformado en un hervidero de conflictos económicos...

    Director: Michael J. Moore

    Género: Drama

    Actores: Xzibit

descargar Pico de Neblina [Joint Venture] (2019) Primera Temporada HBO WEB-DL 1080p Latino 1080p 1080p gratis, Pico de Neblina [Joint Venture] (2019) Primera Temporada HBO WEB-DL 1080p Latino 1080p mega 1 link, Pico de Neblina [Joint Venture] (2019) Primera Temporada HBO WEB-DL 1080p Latino 1080p serie completa, descargar Pico de Neblina [Joint Venture] (2019) Primera Temporada HBO WEB-DL 1080p Latino 1080p gratis en mega.

Pico de Neblina [Joint Venture] (2019) Primera Temporada HBO WEB-DL 1080p Latino pelicula full hd, Pico de Neblina [Joint Venture] (2019) Primera Temporada HBO WEB-DL 1080p Latino mega latino, Pico de Neblina [Joint Venture] (2019) Primera Temporada HBO WEB-DL 1080p Latino 4k latino, Pico de Neblina [Joint Venture] (2019) Primera Temporada HBO WEB-DL 1080p Latino pelicula completa, Pico de Neblina [Joint Venture] (2019) Primera Temporada HBO WEB-DL 1080p Latino descargar gratis, descargar Pico de Neblina [Joint Venture] (2019) Primera Temporada HBO WEB-DL 1080p Latino pelicula latino, Pico de Neblina [Joint Venture] (2019) Primera Temporada HBO WEB-DL 1080p Latino 1 link mega, Pico de Neblina [Joint Venture] (2019) Primera Temporada HBO WEB-DL 1080p Latino 1 link google drive, Pico de Neblina [Joint Venture] (2019) Primera Temporada HBO WEB-DL 1080p Latino hd 1080p latino.
Comentarios 1
  • will - 06 agosto, 2019

    muchas gracias