×

¿Problemas para descargar con Mozilla, EDGE? Deshabilita la opción "Abrir vinculos en una pestaña nueva" tal como lo muestra ésta imagen.

Philip K. Dick’s Electric Dreams (2018) Primera Temporada AMZN WEB-DL 1080p Latino

179 vistas

Información de Philip K. Dick’s Electric Dreams (2018) Primera Temporada AMZN WEB-DL 1080p Latino

Datos de la película

  • Calidad: 1080p
  • Audio: Español Latino AC3 5.1 WEB-DL - Ingles AC3 5.1 WEB-DL
  • Subtitulos: Español Latino SRT- FORZADOS SRT
  • Resolución: 1920x1080
  • Formato: MKV
  • Codec: H.264
  • Encoder: cinemaniahdd
  • Mediainfo: Clic para Mostrar Datos Ver
  • Philip K. Dicks Electric Dreams T01E10 AMZN WEB-DL 1080p Latino [CNMNHDD].mkv
    Format                      : Matroska
    Format version              : Version 4
    File size                   : 3.68 GiB
    Duration                    : 48 min 9 s
    Overall bit rate            : 10.9 Mb/s
    Movie name                  : Philip K. Dicks Electric Dreams T01E10 - CinemaniaHDD.Net
    Encoded date                : UTC 2021-10-17 19:31:46
    Writing application         : mkvmerge v56.1.0 ('My Friend') 64-bit
    Writing library             : libebml v1.4.2 + libmatroska v1.6.4

    Video
    ID                          : 1
    Format                      : AVC
    Format/Info                 : Advanced Video Codec
    Format profile              : High@L4
    Format settings             : CABAC / 4 Ref Frames
    Format settings, CABAC      : Yes
    Format settings, Reference  : 4 frames
    Format settings, GOP        : M=4, N=48
    Codec ID                    : V_MPEG4/ISO/AVC
    Duration                    : 48 min 9 s
    Bit rate mode               : Constant
    Bit rate                    : 10 000 kb/s
    Width                       : 1 920 pixels
    Height                      : 1 080 pixels
    Display aspect ratio        : 16:9
    Frame rate mode             : Constant
    Frame rate                  : 23.976 (24000/1001) FPS
    Color space                 : YUV
    Chroma subsampling          : 4:2:0
    Bit depth                   : 8 bits
    Scan type                   : Progressive
    Bits/(Pixel*Frame)          : 0.201
    Stream size                 : 3.25 GiB (88%)
    Title                       : CinemaniaHDD
    Default                     : Yes
    Forced                      : No
    Color range                 : Limited
    Color primaries             : BT.709
    Transfer characteristics    : BT.709
    Matrix coefficients         : BT.709

    Audio #1
    ID                          : 2
    Format                      : E-AC-3
    Format/Info                 : Enhanced AC-3
    Commercial name             : Dolby Digital Plus
    Codec ID                    : A_EAC3
    Duration                    : 48 min 9 s
    Bit rate mode               : Constant
    Bit rate                    : 640 kb/s
    Channel(s)                  : 6 channels
    Channel layout              : L R C LFE Ls Rs
    Sampling rate               : 48.0 kHz
    Frame rate                  : 31.250 FPS (1536 SPF)
    Compression mode            : Lossy
    Stream size                 : 220 MiB (6%)
    Title                       : Español latino [CinemaniaHDD]
    Language                    : Spanish
    Service kind                : Complete Main
    Default                     : Yes
    Forced                      : No

    Audio #2
    ID                          : 3
    Format                      : E-AC-3
    Format/Info                 : Enhanced AC-3
    Commercial name             : Dolby Digital Plus
    Codec ID                    : A_EAC3
    Duration                    : 48 min 9 s
    Bit rate mode               : Constant
    Bit rate                    : 640 kb/s
    Channel(s)                  : 6 channels
    Channel layout              : L R C LFE Ls Rs
    Sampling rate               : 48.0 kHz
    Frame rate                  : 31.250 FPS (1536 SPF)
    Compression mode            : Lossy
    Stream size                 : 220 MiB (6%)
    Title                       : Inglés [CinemaniaHDD]
    Language                    : English
    Service kind                : Complete Main
    Default                     : No
    Forced                      : No

    Text
    ID                          : 4
    Format                      : UTF-8
    Codec ID                    : S_TEXT/UTF8
    Codec ID/Info               : UTF-8 Plain Text
    Duration                    : 47 min 11 s
    Bit rate                    : 79 b/s
    Count of elements           : 691
    Stream size                 : 27.6 KiB (0%)
    Title                       : Español latino [CinemaniaHDD]
    Language                    : Spanish
    Default                     : No
    Forced                      : No

    Menu
    00:00:00.000                : Amazon Studios
    00:00:05.000                : Title Sequence
    00:00:53.000                : Ads become alive
    00:02:25.000                : Phil watches an interview on the way to work
    00:04:51.000                : Phil tells his coworkers about his home situation
    00:08:36.000                : Phil returns home with some cheese
    00:12:22.000                : Phil asks his coworkers if they saw the same interview last night
    00:16:32.000                : Phil ends up re-watching the interview on his train ride home
    00:18:37.000                : Phil is assessed after the accident
    00:23:56.000                : A neighborhood altercation prevents Phil from heading to work
    00:26:49.000                : Phil's supervisor places him on close supervision
    00:32:24.000                : Phil decides to take matters into his own hands at a political interview
    00:34:41.000                : Phil sneaks into his home
    00:39:23.000                : Phil hides from the peace officers
    00:43:48.000                : The Candidate gives a speech on the others
    00:46:35.000                : End Credits

     

  • Peso: 3.68 GiB Aprox ---- 35.2 GiB in 10 Chapters.

Sinopsis

De la mente del prolífico autor de ciencia ficción, llega la nueva serie de antología Philip K. Dick’s Electric Dreams. Cada episodio tendrá una trama independiente, pero todas las historias ilustran la visión profética de Philip K. Dick, el autor de ‘¿Sueñan los androides con ovejas eléctricas?’, la novela de ciencia ficción que inspiró la película ‘Blade Runner’. Aunque las historias muestren universos separados, todas tienen un punto de unión: el significado y la importancia de la humanidad. De cinco a 5000 años en el futuro, cada relato ilustrará la visión profética de Philip K. Dick. Personajes que descubren que sus padres son alienígenas, o que se dan cuenta de que han perdido recuerdos y que hay mundos alternativos, cada historia épica explorará la fantasía, la humanidad y un futuro que apenas hemos empezado a imaginar.

Ficha técnica

Video trailer de la película

Enlaces de descarga

Rip de Bluray

Descargar Philip K. Dick’s Electric Dreams (2018) Primera Temporada AMZN WEB-DL 1080p Latino




Aportes de DPeliculasHDmega la pass es:dpeliculashdmega.org Aportes de CinemaniaHD la pass es:cinemaniahdd.com
Guardado en : Drama , Sci-Fi & Fantasy , Series

Películas relacionadas

descargar Philip K. Dick’s Electric Dreams (2018) Primera Temporada AMZN WEB-DL 1080p Latino 1080p 1080p gratis, Philip K. Dick’s Electric Dreams (2018) Primera Temporada AMZN WEB-DL 1080p Latino 1080p mega 1 link, Philip K. Dick’s Electric Dreams (2018) Primera Temporada AMZN WEB-DL 1080p Latino 1080p serie completa, descargar Philip K. Dick’s Electric Dreams (2018) Primera Temporada AMZN WEB-DL 1080p Latino 1080p gratis en mega.

Philip K. Dick’s Electric Dreams (2018) Primera Temporada AMZN WEB-DL 1080p Latino pelicula full hd, Philip K. Dick’s Electric Dreams (2018) Primera Temporada AMZN WEB-DL 1080p Latino mega latino, Philip K. Dick’s Electric Dreams (2018) Primera Temporada AMZN WEB-DL 1080p Latino 4k latino, Philip K. Dick’s Electric Dreams (2018) Primera Temporada AMZN WEB-DL 1080p Latino pelicula completa, Philip K. Dick’s Electric Dreams (2018) Primera Temporada AMZN WEB-DL 1080p Latino descargar gratis, descargar Philip K. Dick’s Electric Dreams (2018) Primera Temporada AMZN WEB-DL 1080p Latino pelicula latino, Philip K. Dick’s Electric Dreams (2018) Primera Temporada AMZN WEB-DL 1080p Latino 1 link mega, Philip K. Dick’s Electric Dreams (2018) Primera Temporada AMZN WEB-DL 1080p Latino 1 link google drive, Philip K. Dick’s Electric Dreams (2018) Primera Temporada AMZN WEB-DL 1080p Latino hd 1080p latino.
Comentarios 0