×

¿Problemas para descargar con Mozilla, EDGE? Deshabilita la opción "Abrir vinculos en una pestaña nueva" tal como lo muestra ésta imagen.

Mi amigo el dragón (2016) REMUX 1080p Latino

259 vistas

Información de Mi amigo el dragón (2016) REMUX 1080p Latino

Datos de la película

  • Calidad: Full 1080p
  • Audio: Español Latino AC3 5.1 BLURAY - Ingles DTS-HD Master 7.1 BLURAY
  • Subtitulos: Español Latino PGS - Ingles PGS
  • Resolución: 1920x1080p
  • Formato: MKV
  • Codec: H.264
  • Encoder: CinefiloCool
  • Mediainfo: Clic para Mostrar Datos Ver
  • Mi Amigo El Dragon (2016) REMUX 1080p Latino-CMHDD.mkv Format                      : Matroska Format version              : Version 4 File size                   : 26.9 GiB Duration                    : 1 h 42 min Overall bit rate mode       : Variable Overall bit rate            : 37.5 Mb/s Movie name                  : Pete's Dragon (2016) CinemaniaHDD.Net Encoded date                : UTC 2022-01-31 07:21:47 Writing application         : mkvmerge v56.1.0 ('My Friend') 64-bit Writing library             : libebml v1.4.2 + libmatroska v1.6.4 Attachments                 : CINEMANIAHD.png Video ID                          : 1 Format                      : AVC Format/Info                 : Advanced Video Codec Format profile              : High@L4.1 Format settings             : CABAC / 4 Ref Frames Format settings, CABAC      : Yes Format settings, Reference  : 4 frames Codec ID                    : V_MPEG4/ISO/AVC Duration                    : 1 h 42 min Bit rate mode               : Variable Bit rate                    : 32.4 Mb/s Maximum bit rate            : 35.0 Mb/s Width                       : 1 920 pixels Height                      : 1 080 pixels Display aspect ratio        : 16:9 Frame rate mode             : Constant Frame rate                  : 23.976 (24000/1001) FPS Color space                 : YUV Chroma subsampling          : 4:2:0 Bit depth                   : 8 bits Scan type                   : Progressive Bits/(Pixel*Frame)          : 0.651 Stream size                 : 23.2 GiB (86%) Title                       : REMUX HD1080p [CinemaniaHDD] Default                     : Yes Forced                      : Yes Audio #1 ID                          : 2 Format                      : AC-3 Format/Info                 : Audio Coding 3 Commercial name             : Dolby Digital Codec ID                    : A_AC3 Duration                    : 1 h 42 min Bit rate mode               : Constant Bit rate                    : 640 kb/s Channel(s)                  : 6 channels Channel layout              : L R C LFE Ls Rs Sampling rate               : 48.0 kHz Frame rate                  : 31.250 FPS (1536 SPF) Compression mode            : Lossy Stream size                 : 470 MiB (2%) Title                       : Español Latino [CinemaniaHDD] Language                    : Spanish Service kind                : Complete Main Default                     : Yes Forced                      : Yes Audio #2 ID                          : 3 Format                      : DTS XLL Format/Info                 : Digital Theater Systems Commercial name             : DTS-HD Master Audio Codec ID                    : A_DTS Duration                    : 1 h 42 min Bit rate mode               : Variable Bit rate                    : 4 489 kb/s Channel(s)                  : 8 channels Channel layout              : C L R LFE Lb Rb Lss Rss Sampling rate               : 48.0 kHz Frame rate                  : 93.750 FPS (512 SPF) Bit depth                   : 24 bits Compression mode            : Lossless Stream size                 : 3.22 GiB (12%) Title                       : Ingles [CinemaniaHDD] Language                    : English Default                     : No Forced                      : No Text #1 ID                          : 4 Format                      : PGS Muxing mode                 : zlib Codec ID                    : S_HDMV/PGS Codec ID/Info               : Picture based subtitle format used on BDs/HD-DVDs Duration                    : 1 h 35 min Bit rate                    : 20.1 kb/s Count of elements           : 1726 Stream size                 : 13.8 MiB (0%) Title                       : Español-PGS [CinemaniaHDD] Language                    : Spanish Default                     : No Forced                      : No Text #2 ID                          : 5 Format                      : PGS Muxing mode                 : zlib Codec ID                    : S_HDMV/PGS Codec ID/Info               : Picture based subtitle format used on BDs/HD-DVDs Duration                    : 1 h 41 min Bit rate                    : 28.0 kb/s Count of elements           : 2462 Stream size                 : 20.3 MiB (0%) Title                       : Ingles-PGS [CinemaniaHDD] Language                    : English Default                     : No Forced                      : No Text #3 ID                          : 6 Format                      : UTF-8 Codec ID                    : S_TEXT/UTF8 Codec ID/Info               : UTF-8 Plain Text Duration                    : 1 h 34 min Bit rate                    : 0 b/s Count of elements           : 13 Stream size                 : 265 Bytes (0%) Title                       : Forzados-SRT [CinemaniaHDD] Language                    : Spanish Default                     : Yes Forced                      : Yes Text #4 ID                          : 7 Format                      : UTF-8 Codec ID                    : S_TEXT/UTF8 Codec ID/Info               : UTF-8 Plain Text Duration                    : 1 h 35 min Bit rate                    : 32 b/s Count of elements           : 863 Stream size                 : 22.5 KiB (0%) Title                       : Español-SRT [CinemaniaHDD] Language                    : Spanish Default                     : No Forced                      : No Menu 00:00:00.000                : Family Vacation 00:06:03.989                : The Tale of Dragons 00:09:46.669                : Playtime with Elliot 00:15:20.128                : Forest Ranger Grace 00:21:28.496                : A New Friend 00:30:23.447                : Hospital Escape 00:36:57.966                : Finding Elliot 00:44:03.057                : The Meacham Family 00:52:28.062                : Replaced 00:56:42.566                : The Truth 01:03:13.832                : Capture 01:10:07.078                : Escape Plan 01:17:17.508                : Standoff at the Bridge 01:26:46.034                : Together Again 01:32:26.750                : Epilogue 01:35:01.362                : Credits
  • Peso: 26.9 GiB

Sinopsis

Descargar Mi amigo el dragón (2016) REMUX 1080p Latino. Durante años el Sr. Meacham, un viejo tallador de madera, ha fascinado a los niños de la región con sus cuentos acerca de un feroz dragón que reside en lo más profundo de los bosques del Noroeste del Pacífico. Para su hija Grace, que trabaja como guarda forestal, estas historias no son más que cuentos para niños… hasta que conoce a Peter. Peter es un misterioso niño de 10 años que no tiene familia ni hogar, y que asegura que vive en el bosque con un gigante dragón verde llamado Eliott. Con la ayuda de Natalie, una niña de 11 años cuyo padre es dueño de la serrería local, Grace partirá en busca de respuestas que averigüen de dónde viene Peter, cuál es su verdadero hogar y la verdad acerca de ese dragón.

RESUBIDO, Disponible solo para VIP!!!

Ficha técnica

Video trailer de la película

Enlaces de descarga

Rip de Bluray

Descargar Mi amigo el dragón (2016) REMUX 1080p Latino


Aportes de DPeliculasHDmega la pass es:dpeliculashdmega.org Aportes de CinemaniaHD la pass es:cinemaniahdd.com
Guardado en : Aventura , Familia , Fantasía , Remux

Películas relacionadas

descargar Mi amigo el dragón (2016) REMUX 1080p Latino Full 1080p 1080p gratis, Mi amigo el dragón (2016) REMUX 1080p Latino Full 1080p mega 1 link, Mi amigo el dragón (2016) REMUX 1080p Latino Full 1080p pelicula completa, descargar Mi amigo el dragón (2016) REMUX 1080p Latino Full 1080p gratis en mega.

Mi amigo el dragón (2016) REMUX 1080p Latino pelicula full hd, Mi amigo el dragón (2016) REMUX 1080p Latino mega latino, Mi amigo el dragón (2016) REMUX 1080p Latino 4k latino, Mi amigo el dragón (2016) REMUX 1080p Latino pelicula completa, Mi amigo el dragón (2016) REMUX 1080p Latino descargar gratis, descargar Mi amigo el dragón (2016) REMUX 1080p Latino pelicula latino, Mi amigo el dragón (2016) REMUX 1080p Latino 1 link mega, Mi amigo el dragón (2016) REMUX 1080p Latino 1 link google drive, Mi amigo el dragón (2016) REMUX 1080p Latino hd 1080p latino.
Comentarios 0