×

¿Problemas para descargar con Mozilla, EDGE? Deshabilita la opción "Abrir vinculos en una pestaña nueva" tal como lo muestra ésta imagen.

Mi amigo el dragón (2016) Full HD 1080p Latino

255 vistas

Información de Mi amigo el dragón (2016) Full HD 1080p Latino

Datos de la película

  • Calidad: Full 1080p
  • Audio: Español Latino AC3 5.1 BLURAY - Ingles DTS 5.1 BLURAY
  • Subtitulos: Español Latino PGS - Ingles PGS
  • Resolución: 1920x1080p
  • Formato: MKV
  • Codec: H.264
  • Encoder: CinefiloCool
  • Mediainfo: Clic para Mostrar Datos Ver
  • deo ID                          : 1 Format                      : AVC Format/Info                 : Advanced Video Codec Format profile              : High@L4 Format settings             : CABAC / 5 Ref Frames Format settings, CABAC      : Yes Format settings, Reference  : 5 frames Codec ID                    : V_MPEG4/ISO/AVC Duration                    : 1 h 54 min Bit rate                    : 6 605 kb/s Width                       : 1 920 pixels Height                      : 804 pixels Display aspect ratio        : 2.40:1 Frame rate mode             : Constant Frame rate                  : 23.976 (24000/1001) FPS Color space                 : YUV Chroma subsampling          : 4:2:0 Bit depth                   : 8 bits Scan type                   : Progressive Bits/(Pixel*Frame)          : 0.178 Stream size                 : 5.30 GiB (90%) Default                     : Yes Forced                      : No Color range                 : Limited Color primaries             : BT.709 Transfer characteristics    : BT.709 Matrix coefficients         : BT.709 Audio ID                          : 2 Format                      : E-AC-3 JOC Format/Info                 : Enhanced AC-3 with Joint Object Coding Commercial name             : Dolby Digital Plus with Dolby Atmos Codec ID                    : A_EAC3 Duration                    : 1 h 54 min Bit rate mode               : Constant Bit rate                    : 768 kb/s Channel(s)                  : 6 channels Channel layout              : L R C LFE Ls Rs Sampling rate               : 48.0 kHz Frame rate                  : 31.250 FPS (1536 SPF) Compression mode            : Lossy Stream size                 : 631 MiB (10%) Language                    : English Service kind                : Complete Main Default                     : Yes Forced                      : No Complexity index            : 16 Number of dynamic objects   : 15 Bed channel count           : 1 channel Bed channel configuration   : LFE Text #1 ID                          : 3 Format                      : UTF-8 Codec ID                    : S_TEXT/UTF8 Codec ID/Info               : UTF-8 Plain Text Duration                    : 1 h 45 min Bit rate                    : 44 b/s Count of elements           : 1296 Stream size                 : 34.7 KiB (0%) Title                       : English Language                    : English Default                     : No Forced                      : No Text #2 ID                          : 4 Format                      : UTF-8 Codec ID                    : S_TEXT/UTF8 Codec ID/Info               : UTF-8 Plain Text Duration                    : 1 h 48 min Bit rate                    : 54 b/s Count of elements           : 1649 Stream size                 : 43.1 KiB (0%) Title                       : English CC Language                    : English Default                     : No Forced                      : No Text #3 ID                          : 5 Format                      : UTF-8 Codec ID                    : S_TEXT/UTF8 Codec ID/Info               : UTF-8 Plain Text Duration                    : 1 h 48 min Bit rate                    : 43 b/s Count of elements           : 1322 Stream size                 : 34.9 KiB (0%) Title                       : Spanish Latin American Language                    : Spanish Default                     : No Forced                      : No Text #4 ID                          : 6 Format                      : UTF-8 Codec ID                    : S_TEXT/UTF8 Codec ID/Info               : UTF-8 Plain Text Duration                    : 1 h 53 min Bit rate                    : 39 b/s Count of elements           : 1318 Stream size                 : 33.1 KiB (0%) Title                       : French Canadian Language                    : French Default                     : No Forced                      : No Menu 00:00:00.000                : en:Chapter 01 00:04:48.705                : en:Chapter 02 00:06:26.678                : en:Chapter 03 00:11:27.020                : en:Chapter 04 00:17:37.140                : en:Chapter 05 00:22:16.836                : en:Chapter 06 00:24:39.813                : en:Chapter 07 00:32:21.316                : en:Chapter 08 00:39:13.687                : en:Chapter 09 00:44:04.769                : en:Chapter 10 00:51:06.941                : en:Chapter 11 00:57:17.562                : en:Chapter 12 01:01:04.873                : en:Chapter 13 01:09:05.311                : en:Chapter 14 01:16:07.567                : en:Chapter 15 01:23:05.652                : en:Chapter 16 01:30:28.053                : en:Chapter 17 01:38:43.757                : en:Chapter 18 01:42:59.220                : en:Chapter 19 01:49:27.567                : en:Chapter 20
  • Peso: 3.88 GiB

Sinopsis

Descargar Mi amigo el dragón (2016) Full HD 1080p Latino. Durante años el Sr. Meacham, un viejo tallador de madera, ha fascinado a los niños de la región con sus cuentos acerca de un feroz dragón que reside en lo más profundo de los bosques del Noroeste del Pacífico. Para su hija Grace, que trabaja como guarda forestal, estas historias no son más que cuentos para niños… hasta que conoce a Peter. Peter es un misterioso niño de 10 años que no tiene familia ni hogar, y que asegura que vive en el bosque con un gigante dragón verde llamado Eliott. Con la ayuda de Natalie, una niña de 11 años cuyo padre es dueño de la serrería local, Grace partirá en busca de respuestas que averigüen de dónde viene Peter, cuál es su verdadero hogar y la verdad acerca de ese dragón.

Ficha técnica

Video trailer de la película

Enlaces de descarga

Rip de Bluray

Descargar Mi amigo el dragón (2016) Full HD 1080p Latino




Aportes de DPeliculasHDmega la pass es:dpeliculashdmega.org Aportes de CinemaniaHD la pass es:cinemaniahdd.com Aportes recientes:cinemaniahdd.net

Películas relacionadas

  • Wonka (2023) Full HD 1080p Latino-CMHDD

    Wonka (2023) Full HD 1080p Latino-CMHDD

    2023
    Wonka (2023) Full HD 1080p Latino-CMHDD

    1h 57m 2023

    Descargar Wonka (2023) Full HD 1080p Latino-CMHDD. Basada en el personaje que protagoniza "Charlie y...

    Director: Zoe Morgan

    Género: Comedia

    Actores: Tracy Ifeachor

  • Wonka (2023) 1080p Latino-CMHDD

    Wonka (2023) 1080p Latino-CMHDD

    2023
    Wonka (2023) 1080p Latino-CMHDD

    1h 57m 2023

    Descargar Wonka (2023) 1080p Latino-CMHDD. Basada en el personaje que protagoniza "Charlie y la fábrica...

    Director: Zoe Morgan

    Género: Comedia

    Actores: Tracy Ifeachor

  • Next Goal Wins (2023) Full HD 1080p Latino-CMHDD

    Next Goal Wins (2023) Full HD 1080p Latino-CMHDD

    2023
    Next Goal Wins (2023) Full HD 1080p Latino-CMHDD

    1h 44m 2023

    Descargar Next Goal Wins (2023) Full HD 1080p Latino-CMHDD. Drama deportivo que cuenta la historia del...

    Director: Zack Earl Edwards

    Género: Comedia

    Actores: William Chun

  • Wonka (2023) REMUX 1080p Latino-CMHDD

    Wonka (2023) REMUX 1080p Latino-CMHDD

    2023
    Wonka (2023) REMUX 1080p Latino-CMHDD

    1h 57m 2023

    Descargar Wonka (2023) REMUX 1080p Latino-CMHDD. Basada en el personaje que protagoniza "Charlie y la...

    Director: Zoe Morgan

    Género: Comedia

    Actores: Tracy Ifeachor

descargar Mi amigo el dragón (2016) Full HD 1080p Latino Full 1080p 1080p gratis, Mi amigo el dragón (2016) Full HD 1080p Latino Full 1080p mega 1 link, Mi amigo el dragón (2016) Full HD 1080p Latino Full 1080p pelicula completa, descargar Mi amigo el dragón (2016) Full HD 1080p Latino Full 1080p gratis en mega.

Mi amigo el dragón (2016) Full HD 1080p Latino pelicula full hd, Mi amigo el dragón (2016) Full HD 1080p Latino mega latino, Mi amigo el dragón (2016) Full HD 1080p Latino 4k latino, Mi amigo el dragón (2016) Full HD 1080p Latino pelicula completa, Mi amigo el dragón (2016) Full HD 1080p Latino descargar gratis, descargar Mi amigo el dragón (2016) Full HD 1080p Latino pelicula latino, Mi amigo el dragón (2016) Full HD 1080p Latino 1 link mega, Mi amigo el dragón (2016) Full HD 1080p Latino 1 link google drive, Mi amigo el dragón (2016) Full HD 1080p Latino hd 1080p latino.
Comentarios 0