×

¿Problemas para descargar con Mozilla, EDGE? Deshabilita la opción "Abrir vinculos en una pestaña nueva" tal como lo muestra ésta imagen.

Las Travesuras De Peter Rabbit (2018) REMUX 1080p Latino

152 vistas

Información de Las Travesuras De Peter Rabbit (2018) REMUX 1080p Latino

Datos de la película

  • Calidad: Full 1080p
  • Audio: Español Latino AC3 5.1 BLURAY - Ingles DTS 5.1 BLURAY
  • Subtitulos: Español Latino PGS - Ingles PGS
  • Resolución: 1920x1080p
  • Formato: MKV
  • Codec: H.264
  • Encoder: CinefiloCool
  • Mediainfo: Clic para Mostrar Datos Ver
  • Las Travesuras De Peter Rabbit (2018) REMUX 1080p Latino-CMHDD.mkv
    Format                      : Matroska
    Format version              : Version 4
    File size                   : 19.7 GiB
    Duration                    : 1 h 34 min
    Overall bit rate mode       : Variable
    Overall bit rate            : 29.8 Mb/s
    Movie name                  : Peter Rabbit (2018) CinemaniaHDD.Net
    Encoded date                : UTC 2021-07-04 21:55:18
    Writing application         : mkvmerge v56.1.0 ('My Friend') 64-bit
    Writing library             : libebml v1.4.2 + libmatroska v1.6.4
    Attachments                 : CINEMANIAHD.png

    Video
    ID                          : 1
    Format                      : AVC
    Format/Info                 : Advanced Video Codec
    Format profile              : High@L4.1
    Format settings             : CABAC / 2 Ref Frames
    Format settings, CABAC      : Yes
    Format settings, Reference  : 2 frames
    Format settings, GOP        : M=1, N=10
    Codec ID                    : V_MPEG4/ISO/AVC
    Duration                    : 1 h 34 min
    Bit rate mode               : Variable
    Bit rate                    : 26.8 Mb/s
    Width                       : 1 920 pixels
    Height                      : 1 080 pixels
    Display aspect ratio        : 16:9
    Frame rate mode             : Constant
    Frame rate                  : 23.976 (24000/1001) FPS
    Color space                 : YUV
    Chroma subsampling          : 4:2:0
    Bit depth                   : 8 bits
    Scan type                   : Progressive
    Bits/(Pixel*Frame)          : 0.540
    Stream size                 : 17.8 GiB (90%)
    Title                       : REMUX HD1080p [CinemaniaHDD]
    Language                    : English
    Default                     : Yes
    Forced                      : No

    Audio #1
    ID                          : 2
    Format                      : AC-3
    Format/Info                 : Audio Coding 3
    Commercial name             : Dolby Digital
    Codec ID                    : A_AC3
    Duration                    : 1 h 34 min
    Bit rate mode               : Constant
    Bit rate                    : 640 kb/s
    Channel(s)                  : 6 channels
    Channel layout              : L R C LFE Ls Rs
    Sampling rate               : 48.0 kHz
    Frame rate                  : 31.250 FPS (1536 SPF)
    Compression mode            : Lossy
    Delay relative to video     : 24 ms
    Stream size                 : 434 MiB (2%)
    Title                       : Español Latino [CinemaniaHDD]
    Language                    : Spanish
    Service kind                : Complete Main
    Default                     : Yes
    Forced                      : No

    Audio #2
    ID                          : 3
    Format                      : DTS XLL
    Format/Info                 : Digital Theater Systems
    Commercial name             : DTS-HD Master Audio
    Codec ID                    : A_DTS
    Duration                    : 1 h 34 min
    Bit rate mode               : Variable
    Bit rate                    : 2 222 kb/s
    Channel(s)                  : 6 channels
    Channel layout              : C L R Ls Rs LFE
    Sampling rate               : 48.0 kHz
    Frame rate                  : 93.750 FPS (512 SPF)
    Bit depth                   : 16 bits
    Compression mode            : Lossless
    Stream size                 : 1.47 GiB (7%)
    Title                       : Ingles [CinemaniaHDD]
    Language                    : English
    Default                     : No
    Forced                      : No

    Text #1
    ID                          : 4
    Format                      : PGS
    Muxing mode                 : zlib
    Codec ID                    : S_HDMV/PGS
    Codec ID/Info               : Picture based subtitle format used on BDs/HD-DVDs
    Duration                    : 1 h 33 min
    Bit rate                    : 62.7 kb/s
    Count of elements           : 3901
    Stream size                 : 42.1 MiB (0%)
    Title                       : Español-PGS [CinemaniaHDD]
    Language                    : Spanish
    Default                     : No
    Forced                      : No

    Text #2
    ID                          : 5
    Format                      : PGS
    Muxing mode                 : zlib
    Codec ID                    : S_HDMV/PGS
    Codec ID/Info               : Picture based subtitle format used on BDs/HD-DVDs
    Duration                    : 1 h 33 min
    Bit rate                    : 45.5 kb/s
    Count of elements           : 2512
    Stream size                 : 30.5 MiB (0%)
    Title                       : Ingles-PGS [CinemaniaHDD]
    Language                    : English
    Default                     : No
    Forced                      : No

    Text #3
    ID                          : 6
    Format                      : UTF-8
    Codec ID                    : S_TEXT/UTF8
    Codec ID/Info               : UTF-8 Plain Text
    Duration                    : 1 h 19 min
    Bit rate                    : 0 b/s
    Count of elements           : 7
    Stream size                 : 205 Bytes (0%)
    Title                       : Forzados-SRT [CinemaniaHDD]
    Language                    : Spanish
    Default                     : Yes
    Forced                      : No

    Text #4
    ID                          : 7
    Format                      : UTF-8
    Codec ID                    : S_TEXT/UTF8
    Codec ID/Info               : UTF-8 Plain Text
    Duration                    : 1 h 25 min
    Bit rate                    : 68 b/s
    Count of elements           : 1252
    Stream size                 : 42.9 KiB (0%)
    Title                       : Español-SRT [CinemaniaHDD]
    Language                    : Spanish
    Default                     : No
    Forced                      : No

    Menu
    00:00:00.000                : :Chapter 1
    00:04:04.786                : :Chapter 2
    00:08:26.297                : :Chapter 3
    00:15:11.494                : :Chapter 4
    00:21:00.634                : :Chapter 5
    00:25:43.584                : :Chapter 6
    00:30:50.265                : :Chapter 7
    00:38:00.862                : :Chapter 8
    00:44:37.341                : :Chapter 9
    00:50:07.671                : :Chapter 10
    00:56:21.044                : :Chapter 11
    01:01:07.581                : :Chapter 12
    01:07:02.560                : :Chapter 13
    01:10:30.601                : :Chapter 14
    01:14:35.137                : :Chapter 15
    01:21:51.990                : :Chapter 16

  • Peso: 19.7 GiB

Sinopsis

Descargar Las Travesuras De Peter Rabbit (2018) REMUX 1080p Latino. Peter Rabbit no es un conejo cualquiera. Es un rebelde travieso y aventurero que viste camisa azul y no lleva pantalones. Peter vive junto a su familia y amigos, un grupo variopinto de animales que incluye incluso a un zorro. Todos ellos harán de las suyas en la granja de los McGregor, lugar en cuyo jardín disponen de deliciosos vegetales. Pero la disputa de Peter con el Sr. McGregor se intensificará más que nunca ya que ambos compiten por el afecto de Bea, una amante de los animales de buen corazón. La fiesta animal ha empezado, y esto es solo el principio.

Nota:
Proximamente para Usuarios Free, Disponible Solo Para VIP!!

 

Ficha técnica

Video trailer de la película

Enlaces de descarga

Rip de Bluray

Descargar Las Travesuras De Peter Rabbit (2018) REMUX 1080p Latino


Aportes de DPeliculasHDmega la pass es:dpeliculashdmega.org Aportes de CinemaniaHD la pass es:cinemaniahdd.com
Guardado en : Animación , Aventura , Familia , Remux

Películas relacionadas

  • Wire Room (2022) REMUX 1080p Latino

    Wire Room (2022) REMUX 1080p Latino

    2022
    Wire Room (2022) REMUX 1080p Latino

    1h 37m 2022

    Descargar Wire Room (2022) REMUX 1080p Latino. Mientras está de servicio en la sala de cables, un agente...

    Director: Matt Eskandari

    Género: Acción

    Actores: Texas Battle

  • Alarido (2022) REMUX 1080p Latino

    Alarido (2022) REMUX 1080p Latino

    2022
    Alarido (2022) REMUX 1080p Latino

    1h 29m 2022

    Descargar Alarido (2022) REMUX 1080p Latino. Una joven madre soltera es cautiva junto con sus dos hijos...

    Director: D.J. Caruso

    Género: Remux

    Actores: Vincent Gallo

  • El Cuartel Secreto (2022) WEB-DL 4K UHD HDR Latino

    El Cuartel Secreto (2022) WEB-DL 4K UHD HDR Latino

    2022
    El Cuartel Secreto (2022) WEB-DL 4K UHD HDR Latino

    1h 44m 2022

    Descargar El Cuartel Secreto (2022) WEB-DL 4K UHD HDR Latino. Mientras pasan el rato después de la escuela,...

    Director: Henry Joost

    Género: 4K HDR

    Actores: Zeb Slone

  • El Cuartel Secreto (2022) WEB-DL 1080p Latino

    El Cuartel Secreto (2022) WEB-DL 1080p Latino

    2022
    El Cuartel Secreto (2022) WEB-DL 1080p Latino

    1h 44m 2022

    Descargar El Cuartel Secreto (2022) WEB-DL 1080p Latino. Mientras pasan el rato después de la escuela,...

    Director: Henry Joost

    Género: Acción

    Actores: Zeb Slone

  • Men in Black (1997) REMUX 4K HDR Latino – CMHDD

    Men in Black (1997) REMUX 4K HDR Latino – CMHDD

    1997
    Men in Black (1997) REMUX 4K HDR Latino – CMHDD

    1h 34m 1997

    Durante muchos años los extraterrestres han vivido en la Tierra, mezclados con los humanos, sin que...

    Director: Tyrone S. Walker

    Género: Acción

    Actores: Willie C. Carpenter

descargar Las Travesuras De Peter Rabbit (2018) REMUX 1080p Latino Full 1080p 1080p gratis, Las Travesuras De Peter Rabbit (2018) REMUX 1080p Latino Full 1080p mega 1 link, Las Travesuras De Peter Rabbit (2018) REMUX 1080p Latino Full 1080p pelicula completa, descargar Las Travesuras De Peter Rabbit (2018) REMUX 1080p Latino Full 1080p gratis en mega.

Las Travesuras De Peter Rabbit (2018) REMUX 1080p Latino pelicula full hd, Las Travesuras De Peter Rabbit (2018) REMUX 1080p Latino mega latino, Las Travesuras De Peter Rabbit (2018) REMUX 1080p Latino 4k latino, Las Travesuras De Peter Rabbit (2018) REMUX 1080p Latino pelicula completa, Las Travesuras De Peter Rabbit (2018) REMUX 1080p Latino descargar gratis, descargar Las Travesuras De Peter Rabbit (2018) REMUX 1080p Latino pelicula latino, Las Travesuras De Peter Rabbit (2018) REMUX 1080p Latino 1 link mega, Las Travesuras De Peter Rabbit (2018) REMUX 1080p Latino 1 link google drive, Las Travesuras De Peter Rabbit (2018) REMUX 1080p Latino hd 1080p latino.
Comentarios 0