Las Travesuras De Peter Rabbit (2018) REMUX 4K UHD HDR Latino

68 vistas
1 estrella2 estrellas3 estrellas4 estrellas5 estrellas (Ninguna valoración todavía)
Cargando...

Información de Las Travesuras De Peter Rabbit (2018) REMUX 4K UHD HDR Latino

Datos de la película

  • Calidad: 4K HDR
  • Audio: Se especifica abajo de la Sinopsis
  • Subtitulos: Español Latino PGS - Ingles PGS
  • Resolución: 3840x2160p
  • Formato: MKV
  • Codec: HEVC
  • Encoder: CinefiloCool
  • Mediainfo: Clic para Mostrar Datos Ver
  • Las Travesuras De Peter Rabbit (2018) REMUX UHD HDR Latino-CMHDD.mkv
    Format                      : Matroska
    Format version              : Version 4
    File size                   : 37.2 GiB
    Duration                    : 1 h 34 min
    Overall bit rate mode       : Variable
    Overall bit rate            : 56.2 Mb/s
    Movie name                  : Peter Rabbit (2018) CinemaniaHDD.Net
    Encoded date                : UTC 2021-07-05 00:37:58
    Writing application         : mkvmerge v56.1.0 ('My Friend') 64-bit
    Writing library             : libebml v1.4.2 + libmatroska v1.6.4
    Attachments                 : CINEMANIAHD.png

    Video
    ID                          : 1
    Format                      : HEVC
    Format/Info                 : High Efficiency Video Coding
    Format profile              : Main 10@L5.1@High
    HDR format                  : SMPTE ST 2086, HDR10 compatible
    Codec ID                    : V_MPEGH/ISO/HEVC
    Duration                    : 1 h 34 min
    Bit rate                    : 50.2 Mb/s
    Width                       : 3 840 pixels
    Height                      : 2 160 pixels
    Display aspect ratio        : 16:9
    Frame rate mode             : Constant
    Frame rate                  : 23.976 (24000/1001) FPS
    Color space                 : YUV
    Chroma subsampling          : 4:2:0 (Type 2)
    Bit depth                   : 10 bits
    Bits/(Pixel*Frame)          : 0.252
    Stream size                 : 33.2 GiB (89%)
    Title                       : REMUX 2160p HDR [Bluray]
    Language                    : English
    Default                     : Yes
    Forced                      : No
    Color range                 : Limited
    Color primaries             : BT.2020
    Transfer characteristics    : PQ
    Matrix coefficients         : BT.2020 non-constant
    Mastering display color pri : Display P3
    Mastering display luminance : min: 0.0050 cd/m2, max: 4000 cd/m2
    Maximum Content Light Level : 3991 cd/m2
    Maximum Frame-Average Light : 240 cd/m2

    Audio #1
    ID                          : 2
    Format                      : AC-3
    Format/Info                 : Audio Coding 3
    Commercial name             : Dolby Digital
    Codec ID                    : A_AC3
    Duration                    : 1 h 34 min
    Bit rate mode               : Constant
    Bit rate                    : 640 kb/s
    Channel(s)                  : 6 channels
    Channel layout              : L R C LFE Ls Rs
    Sampling rate               : 48.0 kHz
    Frame rate                  : 31.250 FPS (1536 SPF)
    Compression mode            : Lossy
    Delay relative to video     : 24 ms
    Stream size                 : 434 MiB (1%)
    Title                       : Español Latino [CinemaniaHDD]
    Language                    : Spanish
    Service kind                : Complete Main
    Default                     : Yes
    Forced                      : No

    Audio #2
    ID                          : 3
    Format                      : MLP FBA 16-ch
    Format/Info                 : Meridian Lossless Packing FBA with 16-channel presentation
    Commercial name             : Dolby TrueHD with Dolby Atmos
    Codec ID                    : A_TRUEHD
    Duration                    : 1 h 34 min
    Bit rate mode               : Variable
    Bit rate                    : 4 603 kb/s
    Maximum bit rate            : 8 133 kb/s
    Channel(s)                  : 8 channels
    Channel layout              : L R C LFE Ls Rs Lb Rb
    Sampling rate               : 48.0 kHz
    Frame rate                  : 1 200.000 FPS (40 SPF)
    Compression mode            : Lossless
    Stream size                 : 3.05 GiB (8%)
    Title                       : Ingles [CinemaniaHDD]
    Language                    : English
    Default                     : No
    Forced                      : No
    Number of dynamic objects   : 11
    Bed channel count           : 1 channel
    Bed channel configuration   : LFE

    Audio #3
    ID                          : 4
    Format                      : AC-3
    Format/Info                 : Audio Coding 3
    Commercial name             : Dolby Digital
    Codec ID                    : A_AC3
    Duration                    : 1 h 34 min
    Bit rate mode               : Constant
    Bit rate                    : 640 kb/s
    Channel(s)                  : 6 channels
    Channel layout              : L R C LFE Ls Rs
    Sampling rate               : 48.0 kHz
    Frame rate                  : 31.250 FPS (1536 SPF)
    Compression mode            : Lossy
    Stream size                 : 434 MiB (1%)
    Title                       : Ingles AC3 [CinemaniaHDD]
    Language                    : English
    Service kind                : Complete Main
    Default                     : No
    Forced                      : No

    Text #1
    ID                          : 5
    Format                      : PGS
    Muxing mode                 : zlib
    Codec ID                    : S_HDMV/PGS
    Codec ID/Info               : Picture based subtitle format used on BDs/HD-DVDs
    Duration                    : 1 h 33 min
    Bit rate                    : 45.5 kb/s
    Count of elements           : 2512
    Stream size                 : 30.5 MiB (0%)
    Title                       : Sub_Esp [PGS]
    Language                    : Spanish
    Default                     : No
    Forced                      : No

    Text #2
    ID                          : 6
    Format                      : PGS
    Muxing mode                 : zlib
    Codec ID                    : S_HDMV/PGS
    Codec ID/Info               : Picture based subtitle format used on BDs/HD-DVDs
    Duration                    : 1 h 26 min
    Bit rate                    : 53.8 kb/s
    Count of elements           : 3082
    Stream size                 : 33.1 MiB (0%)
    Title                       : Sub_Eng [PGS]
    Language                    : English
    Default                     : No
    Forced                      : No

    Text #3
    ID                          : 7
    Format                      : UTF-8
    Codec ID                    : S_TEXT/UTF8
    Codec ID/Info               : UTF-8 Plain Text
    Duration                    : 1 h 19 min
    Bit rate                    : 0 b/s
    Count of elements           : 7
    Stream size                 : 205 Bytes (0%)
    Title                       : Sub_Forzados
    Language                    : Spanish
    Default                     : Yes
    Forced                      : No

    Text #4
    ID                          : 8
    Format                      : UTF-8
    Codec ID                    : S_TEXT/UTF8
    Codec ID/Info               : UTF-8 Plain Text
    Duration                    : 1 h 25 min
    Bit rate                    : 68 b/s
    Count of elements           : 1252
    Stream size                 : 42.9 KiB (0%)
    Title                       : Sub_Esp
    Language                    : Spanish
    Default                     : No
    Forced                      : No

    Menu
    00:00:00.000                : Chapter 1
    00:04:04.786                : Chapter 2
    00:08:26.297                : Chapter 3
    00:15:11.702                : Chapter 4
    00:21:00.634                : Chapter 5
    00:25:43.584                : Chapter 6
    00:30:50.265                : Chapter 7
    00:38:00.862                : Chapter 8
    00:44:37.341                : Chapter 9
    00:50:07.671                : Chapter 10
    00:56:21.295                : Chapter 11
    01:01:07.581                : Chapter 12
    01:07:02.560                : Chapter 13
    01:10:30.810                : Chapter 14
    01:14:35.137                : Chapter 15
    01:21:51.990                : Chapter 16

  • Peso: 37.2 GiB

Sinopsis

Descargar Las Travesuras De Peter Rabbit (2018) REMUX 4K UHD HDR Latino. Peter Rabbit no es un conejo cualquiera. Es un rebelde travieso y aventurero que viste camisa azul y no lleva pantalones. Peter vive junto a su familia y amigos, un grupo variopinto de animales que incluye incluso a un zorro. Todos ellos harán de las suyas en la granja de los McGregor, lugar en cuyo jardín disponen de deliciosos vegetales. Pero la disputa de Peter con el Sr. McGregor se intensificará más que nunca ya que ambos compiten por el afecto de Bea, una amante de los animales de buen corazón. La fiesta animal ha empezado, y esto es solo el principio.

Audio Español Latino AC3 .1 Bluray – Ingles TrueHD 7.1 + AC3 5.1 Bluray

Nota:
Disponible Solo Para VIP!!

 

Ficha técnica

Video trailer de la película

Enlaces de descarga

Rip de Bluray

Descargar Las Travesuras De Peter Rabbit (2018) REMUX 4K UHD HDR Latino


Aportes de DPeliculasHDmega la pass es:dpeliculashdmega.org Aportes de CinemaniaHD la pass es:cinemaniahdd.com
Guardado en : 4K HDR , 4K UHD , Animación , Aventura , Familia , Remux

Películas relacionadas

Las Travesuras De Peter Rabbit (2018) REMUX 4K UHD HDR Latino pelicula full hd, Las Travesuras De Peter Rabbit (2018) REMUX 4K UHD HDR Latino mega latino, Las Travesuras De Peter Rabbit (2018) REMUX 4K UHD HDR Latino 4k latino, Las Travesuras De Peter Rabbit (2018) REMUX 4K UHD HDR Latino pelicula completa, Las Travesuras De Peter Rabbit (2018) REMUX 4K UHD HDR Latino descargar gratis, descargar Las Travesuras De Peter Rabbit (2018) REMUX 4K UHD HDR Latino pelicula latino, Las Travesuras De Peter Rabbit (2018) REMUX 4K UHD HDR Latino 1 link mega, Las Travesuras De Peter Rabbit (2018) REMUX 4K UHD HDR Latino 1 link google drive, Las Travesuras De Peter Rabbit (2018) REMUX 4K UHD HDR Latino hd 1080p latino.
Comentarios 0