Las Travesuras De Peter Rabbit (2018) Full HD 1080p Latino

2.154 vistas
1 estrella2 estrellas3 estrellas4 estrellas5 estrellas (2 votos, promedio: 5,00 de 5)
Cargando...

Información de Las Travesuras De Peter Rabbit (2018) Full HD 1080p Latino

Datos de la película

  • Calidad: Full 1080p
  • Audio: Español Latino AC3 5.1 BLURAY - Ingles DTS 5.1 BLURAY
  • Subtitulos: Español Latino PGS - Ingles PGS
  • Resolución: 1920x1080p
  • Formato: MKV
  • Codec: H.264
  • Encoder: Dracarys | CinefiloCool
  • Mediainfo: Clic para Mostrar Datos Ver
  • Las Travesuras De Peter Rabbit (2018) Full HD 1080p Latino-CMHDD.mkv
    Format                      : Matroska
    Format version              : Version 4
    File size                   : 6.23 GiB
    Duration                    : 1 h 34 min
    Overall bit rate            : 9 424 kb/s
    Movie name                  : Peter Rabbit (2018) CinemaniaHDD.Net
    Encoded date                : UTC 2021-07-05 18:32:06
    Writing application         : mkvmerge v56.1.0 ('My Friend') 64-bit
    Writing library             : libebml v1.4.2 + libmatroska v1.6.4
    Attachments                 : CINEMANIAHD.png

    Video
    ID                          : 1
    Format                      : AVC
    Format/Info                 : Advanced Video Codec
    Format profile              : High@L4.1
    Format settings             : CABAC / 4 Ref Frames
    Format settings, CABAC      : Yes
    Format settings, Reference  : 4 frames
    Codec ID                    : V_MPEG4/ISO/AVC
    Duration                    : 1 h 34 min
    Bit rate                    : 7 213 kb/s
    Width                       : 1 920 pixels
    Height                      : 1 080 pixels
    Display aspect ratio        : 16:9
    Frame rate mode             : Constant
    Frame rate                  : 23.976 (24000/1001) FPS
    Color space                 : YUV
    Chroma subsampling          : 4:2:0
    Bit depth                   : 8 bits
    Scan type                   : Progressive
    Bits/(Pixel*Frame)          : 0.145
    Stream size                 : 4.77 GiB (77%)
    Title                       : Full HD1080p [CinemaniaHDD]
    Writing library             : x264 core 157 r2935 545de2f
    Encoding settings           : cabac=1 / ref=4 / deblock=1:0:0 / analyse=0x3:0x133 / me=tesa / subme=11 / psy=1 / psy_rd=1.00:0.00 / mixed_ref=1 / me_range=24 / chroma_me=1 / trellis=2 / 8x8dct=1 / cqm=0 / deadzone=21,11 / fast_pskip=0 / chroma_qp_offset=-2 / threads=24 / lookahead_threads=6 / sliced_threads=0 / nr=0 / decimate=1 / interlaced=0 / bluray_compat=0 / constrained_intra=0 / bframes=16 / b_pyramid=2 / b_adapt=2 / b_bias=0 / direct=3 / weightb=1 / open_gop=0 / weightp=2 / keyint=240 / keyint_min=24 / scenecut=40 / intra_refresh=0 / rc_lookahead=60 / rc=crf / mbtree=1 / crf=18.0 / qcomp=0.60 / qpmin=0 / qpmax=69 / qpstep=4 / vbv_maxrate=62500 / vbv_bufsize=78125 / crf_max=0.0 / nal_hrd=none / filler=0 / ip_ratio=1.40 / aq=1:1.00
    Default                     : Yes
    Forced                      : Yes
    Color range                 : Limited
    Color primaries             : BT.709
    Transfer characteristics    : BT.709
    Matrix coefficients         : BT.709

    Audio #1
    ID                          : 2
    Format                      : AC-3
    Format/Info                 : Audio Coding 3
    Commercial name             : Dolby Digital
    Codec ID                    : A_AC3
    Duration                    : 1 h 34 min
    Bit rate mode               : Constant
    Bit rate                    : 640 kb/s
    Channel(s)                  : 6 channels
    Channel layout              : L R C LFE Ls Rs
    Sampling rate               : 48.0 kHz
    Frame rate                  : 31.250 FPS (1536 SPF)
    Compression mode            : Lossy
    Delay relative to video     : 24 ms
    Stream size                 : 434 MiB (7%)
    Title                       : Español Latino [CinemaniaHDD]
    Language                    : Spanish
    Service kind                : Complete Main
    Default                     : Yes
    Forced                      : Yes

    Audio #2
    ID                          : 3
    Format                      : DTS
    Format/Info                 : Digital Theater Systems
    Codec ID                    : A_DTS
    Duration                    : 1 h 34 min
    Bit rate mode               : Constant
    Bit rate                    : 1 509 kb/s
    Channel(s)                  : 6 channels
    Channel layout              : C L R Ls Rs LFE
    Sampling rate               : 48.0 kHz
    Frame rate                  : 93.750 FPS (512 SPF)
    Bit depth                   : 24 bits
    Compression mode            : Lossy
    Stream size                 : 1 022 MiB (16%)
    Title                       : Ingles [CinemaniaHDD]
    Language                    : English
    Default                     : No
    Forced                      : No

    Text #1
    ID                          : 4
    Format                      : PGS
    Muxing mode                 : zlib
    Codec ID                    : S_HDMV/PGS
    Codec ID/Info               : Picture based subtitle format used on BDs/HD-DVDs
    Duration                    : 1 h 33 min
    Bit rate                    : 45.5 kb/s
    Count of elements           : 2512
    Stream size                 : 30.5 MiB (0%)
    Title                       : Español-PGS [CinemaniaHDD]
    Language                    : Spanish
    Default                     : No
    Forced                      : No

    Text #2
    ID                          : 5
    Format                      : PGS
    Muxing mode                 : zlib
    Codec ID                    : S_HDMV/PGS
    Codec ID/Info               : Picture based subtitle format used on BDs/HD-DVDs
    Duration                    : 1 h 33 min
    Bit rate                    : 62.7 kb/s
    Count of elements           : 3901
    Stream size                 : 42.1 MiB (1%)
    Title                       : Ingles-PGS [CinemaniaHDD]
    Language                    : English
    Default                     : No
    Forced                      : No

    Text #3
    ID                          : 6
    Format                      : UTF-8
    Codec ID                    : S_TEXT/UTF8
    Codec ID/Info               : UTF-8 Plain Text
    Duration                    : 1 h 19 min
    Bit rate                    : 0 b/s
    Count of elements           : 7
    Stream size                 : 205 Bytes (0%)
    Title                       : Forzados-SRT [CinemaniaHDD]
    Language                    : Spanish
    Default                     : Yes
    Forced                      : Yes

    Text #4
    ID                          : 7
    Format                      : UTF-8
    Codec ID                    : S_TEXT/UTF8
    Codec ID/Info               : UTF-8 Plain Text
    Duration                    : 1 h 25 min
    Bit rate                    : 68 b/s
    Count of elements           : 1252
    Stream size                 : 42.9 KiB (0%)
    Title                       : Español-SRT [CinemaniaHDD]
    Language                    : Spanish
    Default                     : No
    Forced                      : No

    Menu
    00:00:00.000                : :Chapter 1
    00:04:04.786                : :Chapter 2
    00:08:26.297                : :Chapter 3
    00:15:11.494                : :Chapter 4
    00:21:00.634                : :Chapter 5
    00:25:43.584                : :Chapter 6
    00:30:50.265                : :Chapter 7
    00:38:00.862                : :Chapter 8
    00:44:37.341                : :Chapter 9
    00:50:07.671                : :Chapter 10
    00:56:21.044                : :Chapter 11
    01:01:07.581                : :Chapter 12
    01:07:02.560                : :Chapter 13
    01:10:30.601                : :Chapter 14
    01:14:35.137                : :Chapter 15
    01:21:51.990                : :Chapter 16

  • Peso: 6.23 GiB

Sinopsis

Descargar Las Travesuras De Peter Rabbit (2018) Full HD 1080p Latino. Peter Rabbit no es un conejo cualquiera. Es un rebelde travieso y aventurero que viste camisa azul y no lleva pantalones. Peter vive junto a su familia y amigos, un grupo variopinto de animales que incluye incluso a un zorro. Todos ellos harán de las suyas en la granja de los McGregor, lugar en cuyo jardín disponen de deliciosos vegetales. Pero la disputa de Peter con el Sr. McGregor se intensificará más que nunca ya que ambos compiten por el afecto de Bea, una amante de los animales de buen corazón. La fiesta animal ha empezado, y esto es solo el principio.

RESUBIDO NUEVO RIP VERSION PLACEBO!!!

Ficha técnica

Video trailer de la película

Enlaces de descarga

Rip de Bluray

Descargar Las Travesuras De Peter Rabbit (2018) Full HD 1080p Latino




Aportes de DPeliculasHDmega la pass es:dpeliculashdmega.org Aportes de CinemaniaHD la pass es:cinemaniahdd.com

Películas relacionadas

  • Dune (2021) HMAX 4K-HDR WEB-DL 2160p Latino

    Dune (2021) HMAX 4K-HDR WEB-DL 2160p Latino

    2021
    Dune (2021) HMAX 4K-HDR WEB-DL 2160p Latino

    5.0 2h 35m 2021

    El hijo de una familia noble trata de vengarse de la muerte de su padre al mismo tiempo que salva un...

    Director: Tom Struthers

    Género: Acción

    Actores: Zendaya

  • Dune (2021) HMAX WEB-DL 1080p Latino

    Dune (2021) HMAX WEB-DL 1080p Latino

    2021
    Dune (2021) HMAX WEB-DL 1080p Latino

    5.0 2h 35m 2021

    El hijo de una familia noble trata de vengarse de la muerte de su padre al mismo tiempo que salva un...

    Director: Tom Struthers

    Género: Acción

    Actores: Zendaya

  • Playhouse (2020) PLACEBO Full HD 1080p Latino

    Playhouse (2020) PLACEBO Full HD 1080p Latino

    2020
    Playhouse (2020) PLACEBO Full HD 1080p Latino

    0.0 1h 27m 2020

    Descargar Playhouse (2020) PLACEBO Full HD 1080p Latino. El temerario Jack Travis (William Holstead)...

    Director: Toby Watts

    Género: FULL 1080p Plateadas

    Actores: William Holstead

Las Travesuras De Peter Rabbit (2018) Full HD 1080p Latino pelicula full hd, Las Travesuras De Peter Rabbit (2018) Full HD 1080p Latino mega latino, Las Travesuras De Peter Rabbit (2018) Full HD 1080p Latino 4k latino, Las Travesuras De Peter Rabbit (2018) Full HD 1080p Latino pelicula completa, Las Travesuras De Peter Rabbit (2018) Full HD 1080p Latino descargar gratis, descargar Las Travesuras De Peter Rabbit (2018) Full HD 1080p Latino pelicula latino, Las Travesuras De Peter Rabbit (2018) Full HD 1080p Latino 1 link mega, Las Travesuras De Peter Rabbit (2018) Full HD 1080p Latino 1 link google drive, Las Travesuras De Peter Rabbit (2018) Full HD 1080p Latino hd 1080p latino.
Comentarios 3
  • Matto Gosso - 26 abril, 2018

    La versión web-dl es más pesada. Por qué???

    • Dracarys - 26 abril, 2018

      Diferentes encodeos…

  • Gabriel - 25 abril, 2018

    Gracias!! Excelente Calidad Como Siempre