×

¿Problemas para descargar con Mozilla, EDGE? Deshabilita la opción "Abrir vinculos en una pestaña nueva" tal como lo muestra ésta imagen.

Peter Rabbit 2: Conejo A la fuga (2021) WebDL 1080p SUB

168 vistas

Información de Peter Rabbit 2: Conejo A la fuga (2021) WebDL 1080p SUB

Datos de la película

  • Calidad: WEBDL
  • Audio: Se especifica abajo de la Sinopsis
  • Subtitulos: Español Latino SRT - Ingles SRT
  • Resolución: 1920x1080p
  • Formato: MKV
  • Codec: H.264
  • Encoder: CinefiloCool
  • Mediainfo: Clic para Mostrar Datos Ver
  • Peter Rabbit 2 Conejo En Fuga (2021) WebDL 1080p SUB.mkv
    Format                      : Matroska
    Format version              : Version 4
    File size                   : 4.16 GiB
    Duration                    : 1 h 33 min
    Overall bit rate            : 6 373 kb/s
    Movie name                  : Peter Rabbit 2: The Runaway (2021) CinemaniaHDD.Net
    Encoded date                : UTC 2021-07-05 01:23:49
    Writing application         : mkvmerge v56.1.0 ('My Friend') 64-bit
    Writing library             : libebml v1.4.2 + libmatroska v1.6.4
    Attachments                 : CINEMANIAHD.png

    Video
    ID                          : 1
    Format                      : AVC
    Format/Info                 : Advanced Video Codec
    Format profile              : High@L4
    Format settings             : CABAC / 2 Ref Frames
    Format settings, CABAC      : Yes
    Format settings, Reference  : 2 frames
    Codec ID                    : V_MPEG4/ISO/AVC
    Duration                    : 1 h 33 min
    Bit rate                    : 5 603 kb/s
    Width                       : 1 920 pixels
    Height                      : 1 080 pixels
    Display aspect ratio        : 16:9
    Frame rate mode             : Constant
    Frame rate                  : 23.976 (24000/1001) FPS
    Color space                 : YUV
    Chroma subsampling          : 4:2:0
    Bit depth                   : 8 bits
    Scan type                   : Progressive
    Bits/(Pixel*Frame)          : 0.113
    Stream size                 : 3.65 GiB (88%)
    Title                       : WEB HD1080p [CinemaniaHDD]
    Writing library             : x264 core 155 r2901 7d0ff22
    Default                     : Yes
    Forced                      : Yes
    Color range                 : Limited
    Color primaries             : BT.709
    Transfer characteristics    : BT.709
    Matrix coefficients         : BT.709

    Audio #1
    ID                          : 2
    Format                      : E-AC-3
    Format/Info                 : Enhanced AC-3
    Commercial name             : Dolby Digital Plus
    Codec ID                    : A_EAC3
    Duration                    : 1 h 33 min
    Bit rate mode               : Constant
    Bit rate                    : 384 kb/s
    Channel(s)                  : 6 channels
    Channel layout              : L R C LFE Ls Rs
    Sampling rate               : 48.0 kHz
    Frame rate                  : 31.250 FPS (1536 SPF)
    Compression mode            : Lossy
    Stream size                 : 256 MiB (6%)
    Title                       : Ingles [CinemaniaHDD]
    Language                    : English
    Service kind                : Complete Main
    Default                     : Yes
    Forced                      : Yes

    Audio #2
    ID                          : 3
    Format                      : AC-3
    Format/Info                 : Audio Coding 3
    Commercial name             : Dolby Digital
    Codec ID                    : A_AC3
    Duration                    : 1 h 33 min
    Bit rate mode               : Constant
    Bit rate                    : 384 kb/s
    Channel(s)                  : 6 channels
    Channel layout              : L R C LFE Ls Rs
    Sampling rate               : 48.0 kHz
    Frame rate                  : 31.250 FPS (1536 SPF)
    Compression mode            : Lossy
    Stream size                 : 256 MiB (6%)
    Title                       : Ingles AC3 [CinemaniaHDD]
    Language                    : English
    Service kind                : Complete Main
    Default                     : No
    Forced                      : No

    Text #1
    ID                          : 4
    Format                      : UTF-8
    Codec ID                    : S_TEXT/UTF8
    Codec ID/Info               : UTF-8 Plain Text
    Duration                    : 1 h 27 min
    Bit rate                    : 84 b/s
    Count of elements           : 1511
    Stream size                 : 53.9 KiB (0%)
    Title                       : Español-SRT [CinemaniaHDD]
    Language                    : Spanish
    Default                     : Yes
    Forced                      : Yes

    Text #2
    ID                          : 5
    Format                      : UTF-8
    Codec ID                    : S_TEXT/UTF8
    Codec ID/Info               : UTF-8 Plain Text
    Duration                    : 1 h 33 min
    Bit rate                    : 88 b/s
    Count of elements           : 1993
    Stream size                 : 60.1 KiB (0%)
    Title                       : Ingles-SRT [CinemaniaHDD]
    Language                    : English
    Default                     : No
    Forced                      : No

  • Peso: 4.16 GiB

Sinopsis

Descargar Peter Rabbit 2: Conejo A la fuga (2021) WebDL 1080p SUB. Bea, Thomas y los conejos han creado una familia improvisada, pero a pesar de sus mejores esfuerzos, Peter no parece sacudirse su traviesa reputación. Aventurándose más allá del jardín, peter se encuentra en un mundo que aprecia sus trastadas, pero cuando su familia lo arriesga todo por ir en su búsqueda, Peter deberá decidir qué tipo de conejo quiere ser.

Audio Ingles EAC3 5.1 + AC3 5.1 WebDL

Ficha técnica

Video trailer de la película

Enlaces de descarga

Rip de Bluray

Descargar Peter Rabbit 2: Conejo A la fuga (2021) WebDL 1080p SUB




Aportes de DPeliculasHDmega la pass es:dpeliculashdmega.org Aportes de CinemaniaHD la pass es:cinemaniahdd.com

Películas relacionadas

descargar Peter Rabbit 2: Conejo A la fuga (2021) WebDL 1080p SUB WEBDL 1080p gratis, Peter Rabbit 2: Conejo A la fuga (2021) WebDL 1080p SUB WEBDL mega 1 link, Peter Rabbit 2: Conejo A la fuga (2021) WebDL 1080p SUB WEBDL pelicula completa, descargar Peter Rabbit 2: Conejo A la fuga (2021) WebDL 1080p SUB WEBDL gratis en mega.

Peter Rabbit 2: Conejo A la fuga (2021) WebDL 1080p SUB pelicula full hd, Peter Rabbit 2: Conejo A la fuga (2021) WebDL 1080p SUB mega latino, Peter Rabbit 2: Conejo A la fuga (2021) WebDL 1080p SUB 4k latino, Peter Rabbit 2: Conejo A la fuga (2021) WebDL 1080p SUB pelicula completa, Peter Rabbit 2: Conejo A la fuga (2021) WebDL 1080p SUB descargar gratis, descargar Peter Rabbit 2: Conejo A la fuga (2021) WebDL 1080p SUB pelicula latino, Peter Rabbit 2: Conejo A la fuga (2021) WebDL 1080p SUB 1 link mega, Peter Rabbit 2: Conejo A la fuga (2021) WebDL 1080p SUB 1 link google drive, Peter Rabbit 2: Conejo A la fuga (2021) WebDL 1080p SUB hd 1080p latino.
Comentarios 0