Peter Rabbit 2: Conejo en Fuga (2021) PLACEBO Full HD 1080p Latino

105 vistas
1 estrella2 estrellas3 estrellas4 estrellas5 estrellas (3 votos, promedio: 5,00 de 5)
Cargando...

Información de Peter Rabbit 2: Conejo en Fuga (2021) PLACEBO Full HD 1080p Latino

Datos de la película

  • Calidad: Full 1080p
  • Audio: Se especifica abajo de la Sinopsis
  • Subtitulos: Español Latino SRT- FORZADOS SRT
  • Resolución: 1920x1080p
  • Formato: MKV
  • Codec: H.264
  • Encoder: Melkor
  • Mediainfo: Clic para Mostrar Datos Ver
  • Peter Rabbit 2 Conejo En Fuga (2021) PLACEBO 1080p Latino.mkv
    Format                      : Matroska
    Format version              : Version 4
    File size                   : 5.79 GiB
    Duration                    : 1 h 33 min
    Overall bit rate mode       : Variable
    Overall bit rate            : 8 880 kb/s
    Movie name                  : Peter Rabbit 2 The Runaway (2021) CinemaniaHDD.Net
    Encoded date                : UTC 2021-08-03 15:25:09
    Writing application         : mkvmerge v56.1.0 ('My Friend') 64-bit
    Writing library             : libebml v1.4.2 + libmatroska v1.6.4
    Attachments                 : CINEMANIAHD.png

    Video
    ID                          : 1
    Format                      : AVC
    Format/Info                 : Advanced Video Codec
    Format profile              : High@L4.1
    Format settings             : CABAC / 4 Ref Frames
    Format settings, CABAC      : Yes
    Format settings, Reference  : 4 frames
    Codec ID                    : V_MPEG4/ISO/AVC
    Duration                    : 1 h 33 min
    Bit rate                    : 5 529 kb/s
    Width                       : 1 920 pixels
    Height                      : 1 080 pixels
    Display aspect ratio        : 16:9
    Frame rate mode             : Constant
    Frame rate                  : 23.976 (24000/1001) FPS
    Color space                 : YUV
    Chroma subsampling          : 4:2:0
    Bit depth                   : 8 bits
    Scan type                   : Progressive
    Bits/(Pixel*Frame)          : 0.111
    Stream size                 : 3.61 GiB (62%)
    Title                       : Full HD1080p [CinemaniaHDD]
    Writing library             : x264 core 157 r2935 545de2f
    Encoding settings           : cabac=1 / ref=4 / deblock=1:0:0 / analyse=0x3:0x133 / me=tesa / subme=11 / psy=1 / psy_rd=1.00:0.00 / mixed_ref=1 / me_range=24 / chroma_me=1 / trellis=2 / 8x8dct=1 / cqm=0 / deadzone=21,11 / fast_pskip=0 / chroma_qp_offset=-2 / threads=24 / lookahead_threads=6 / sliced_threads=0 / nr=0 / decimate=1 / interlaced=0 / bluray_compat=0 / constrained_intra=0 / bframes=16 / b_pyramid=2 / b_adapt=2 / b_bias=0 / direct=3 / weightb=1 / open_gop=0 / weightp=2 / keyint=240 / keyint_min=24 / scenecut=40 / intra_refresh=0 / rc_lookahead=60 / rc=crf / mbtree=1 / crf=18.5 / qcomp=0.60 / qpmin=0 / qpmax=69 / qpstep=4 / vbv_maxrate=62500 / vbv_bufsize=78125 / crf_max=0.0 / nal_hrd=none / filler=0 / ip_ratio=1.40 / aq=1:1.00
    Default                     : Yes
    Forced                      : Yes
    Color range                 : Limited
    Color primaries             : BT.709
    Transfer characteristics    : BT.709
    Matrix coefficients         : BT.709

    Audio #1
    ID                          : 2
    Format                      : AC-3
    Format/Info                 : Audio Coding 3
    Commercial name             : Dolby Digital
    Codec ID                    : A_AC3
    Duration                    : 1 h 33 min
    Bit rate mode               : Constant
    Bit rate                    : 448 kb/s
    Channel(s)                  : 6 channels
    Channel layout              : L R C LFE Ls Rs
    Sampling rate               : 48.0 kHz
    Frame rate                  : 31.250 FPS (1536 SPF)
    Compression mode            : Lossy
    Stream size                 : 299 MiB (5%)
    Title                       : Español Latino AC3 [CinemaniaHDD]
    Language                    : Spanish
    Service kind                : Complete Main
    Default                     : Yes
    Forced                      : Yes

    Audio #2
    ID                          : 3
    Format                      : DTS XLL
    Format/Info                 : Digital Theater Systems
    Commercial name             : DTS-HD Master Audio
    Codec ID                    : A_DTS
    Duration                    : 1 h 33 min
    Bit rate mode               : Variable
    Bit rate                    : 2 233 kb/s
    Channel(s)                  : 6 channels
    Channel layout              : C L R Ls Rs LFE
    Sampling rate               : 48.0 kHz
    Frame rate                  : 93.750 FPS (512 SPF)
    Bit depth                   : 16 bits
    Compression mode            : Lossless
    Stream size                 : 1.46 GiB (25%)
    Title                       : Ingles [CinemaniaHDD]
    Language                    : English
    Default                     : No
    Forced                      : No

    Audio #3
    ID                          : 4
    Format                      : E-AC-3
    Format/Info                 : Enhanced AC-3
    Commercial name             : Dolby Digital Plus
    Codec ID                    : A_EAC3
    Duration                    : 1 h 33 min
    Bit rate mode               : Constant
    Bit rate                    : 640 kb/s
    Channel(s)                  : 6 channels
    Channel layout              : L R C LFE Ls Rs
    Sampling rate               : 48.0 kHz
    Frame rate                  : 31.250 FPS (1536 SPF)
    Compression mode            : Lossy
    Delay relative to video     : 1 s 2 ms
    Stream size                 : 427 MiB (7%)
    Title                       : Español Latino DDP [CinemaniaHDD]
    Language                    : Spanish
    Service kind                : Complete Main
    Default                     : No
    Forced                      : No

    Text #1
    ID                          : 5
    Format                      : UTF-8
    Codec ID                    : S_TEXT/UTF8
    Codec ID/Info               : UTF-8 Plain Text
    Duration                    : 1 h 20 min
    Bit rate                    : 2 b/s
    Count of elements           : 40
    Stream size                 : 1.21 KiB (0%)
    Title                       : Forzados-SRT [CinemaniaHDD]
    Language                    : Spanish
    Default                     : Yes
    Forced                      : Yes

    Text #2
    ID                          : 6
    Format                      : UTF-8
    Codec ID                    : S_TEXT/UTF8
    Codec ID/Info               : UTF-8 Plain Text
    Duration                    : 1 h 26 min
    Bit rate                    : 70 b/s
    Count of elements           : 1317
    Stream size                 : 44.3 KiB (0%)
    Title                       : Español-SRT [CinemaniaHDD]
    Language                    : Spanish
    Default                     : No
    Forced                      : No

    Text #3
    ID                          : 7
    Format                      : PGS
    Muxing mode                 : zlib
    Codec ID                    : S_HDMV/PGS
    Codec ID/Info               : Picture based subtitle format used on BDs/HD-DVDs
    Duration                    : 1 h 32 min
    Bit rate                    : 51.4 kb/s
    Count of elements           : 3499
    Stream size                 : 34.1 MiB (1%)
    Title                       : Ingles-PGS [CinemaniaHDD]
    Language                    : English
    Default                     : No
    Forced                      : No

    Menu
    00:00:00.000                : :Chapter 01
    00:05:31.665                : :Chapter 02
    00:10:14.113                : :Chapter 03
    00:14:34.540                : :Chapter 04
    00:19:46.685                : :Chapter 05
    00:26:22.331                : :Chapter 06
    00:31:54.871                : :Chapter 07
    00:38:46.950                : :Chapter 08
    00:46:33.541                : :Chapter 09
    00:50:49.797                : :Chapter 10
    00:56:08.156                : :Chapter 11
    01:05:45.066                : :Chapter 12
    01:08:21.973                : :Chapter 13
    01:12:51.701                : :Chapter 14
    01:16:07.313                : :Chapter 15
    01:19:09.328                : :Chapter 16
    01:26:48.286                : :Chapter 17

  • Peso: 5.79 GiB

Sinopsis

Descargar Peter Rabbit 2: Conejo en Fuga (2021) PLACEBO Full HD 1080p Latino. A pesar de sus esfuerzos, Peter parece que no puede sacudir su reputación de travieso entre los otros conejos. Una vez que sale del jardín, Peter se encuentra en un mundo donde aprecian las travesuras están bien vistas y toleradas, pero su familia viene a buscarlo para traerlo de vuelta a casa.

Español Latino EAC3 & AC3 5.1 – Ingles DTS-HD 5.1

Ficha técnica

Video trailer de la película

Enlaces de descarga

Rip de Bluray

Descargar Peter Rabbit 2: Conejo en Fuga (2021) PLACEBO Full HD 1080p Latino




Aportes de DPeliculasHDmega la pass es:dpeliculashdmega.org Aportes de CinemaniaHD la pass es:cinemaniahdd.com

Películas relacionadas

Peter Rabbit 2: Conejo en Fuga (2021) PLACEBO Full HD 1080p Latino pelicula full hd, Peter Rabbit 2: Conejo en Fuga (2021) PLACEBO Full HD 1080p Latino mega latino, Peter Rabbit 2: Conejo en Fuga (2021) PLACEBO Full HD 1080p Latino 4k latino, Peter Rabbit 2: Conejo en Fuga (2021) PLACEBO Full HD 1080p Latino pelicula completa, Peter Rabbit 2: Conejo en Fuga (2021) PLACEBO Full HD 1080p Latino descargar gratis, descargar Peter Rabbit 2: Conejo en Fuga (2021) PLACEBO Full HD 1080p Latino pelicula latino, Peter Rabbit 2: Conejo en Fuga (2021) PLACEBO Full HD 1080p Latino 1 link mega, Peter Rabbit 2: Conejo en Fuga (2021) PLACEBO Full HD 1080p Latino 1 link google drive, Peter Rabbit 2: Conejo en Fuga (2021) PLACEBO Full HD 1080p Latino hd 1080p latino.
Comentarios 2
  • The Principal - 03 agosto, 2021

    hola…amigo se agotaron las descargas ..no se puede descargar por ningun lado…puedes solucionarlo…gracias

    • Melkor - 04 agosto, 2021

      Por eso se agregan multiples opciones amigo, use otro servidor.