Peter Pan: La búsqueda del libro de Nunca Jamás (2018) Web-DL 1080p Latino

739 vistas
1 estrella2 estrellas3 estrellas4 estrellas5 estrellas (Ninguna valoración todavía)
Cargando…

Información de Peter Pan: La búsqueda del libro de Nunca Jamás (2018) Web-DL 1080p Latino

Datos de la película

  • Calidad: WEBDL
  • Audio: Español Latino AC3 2.0 iTunes - Ingles AC3 5.1 iTunes
  • Subtitulos: Español Latino SRT - Ingles SRT
  • Resolución: 1920x1080p
  • Formato: MKV
  • Codec: H.264
  • Encoder: EVO
  • Mediainfo: Clic para Mostrar Datos Ver
  • Peter Pan - La busqueda del libro de Nunca Jamas (2018) Web-DL 1080p Latino.mkv
    Format                      : Matroska
    Format version              : Version 4 / Version 2
    File size                   : 3.56 GiB
    Duration                    : 1 h 28 min
    Overall bit rate            : 5 776 kb/s
    Movie name                  : CinemaniaHDD.Net
    Encoded date                : UTC 2018-11-18 20:21:00
    Writing application         : mkvmerge v25.0.0 ('Prog Noir') 64-bit
    Writing library             : libebml v1.3.6 + libmatroska v1.4.9

    Video
    ID                          : 1
    Format                      : AVC
    Format/Info                 : Advanced Video Codec
    Format profile              : [email protected]
    Format settings             : CABAC / 4 Ref Frames
    Format settings, CABAC      : Yes
    Format settings, RefFrames  : 4 frames
    Codec ID                    : V_MPEG4/ISO/AVC
    Duration                    : 1 h 28 min
    Bit rate                    : 5 133 kb/s
    Width                       : 1 920 pixels
    Height                      : 1 080 pixels
    Display aspect ratio        : 16:9
    Frame rate mode             : Constant
    Frame rate                  : 24.000 FPS
    Color space                 : YUV
    Chroma subsampling          : 4:2:0
    Bit depth                   : 8 bits
    Scan type                   : Progressive
    Bits/(Pixel*Frame)          : 0.103
    Stream size                 : 3.17 GiB (89%)
    Title                       : HD1080p [Web-DL]
    Language                    : English
    Default                     : Yes
    Forced                      : No
    Color range                 : Limited
    Color primaries             : BT.709
    Transfer characteristics    : BT.709
    Matrix coefficients         : BT.709

    Audio #1
    ID                          : 2
    Format                      : AC-3
    Format/Info                 : Audio Coding 3
    Format settings, Endianness : Big
    Codec ID                    : A_AC3
    Duration                    : 1 h 28 min
    Bit rate mode               : Constant
    Bit rate                    : 256 kb/s
    Channel(s)                  : 2 channels
    Channel positions           : Front: L R
    Sampling rate               : 48.0 kHz
    Frame rate                  : 31.250 FPS (1536 SPF)
    Bit depth                   : 16 bits
    Compression mode            : Lossy
    Stream size                 : 162 MiB (4%)
    Title                       : AC3_2.0_Web-DL_Esp
    Language                    : Spanish
    Service kind                : Complete Main
    Default                     : Yes
    Forced                      : No

    Audio #2
    ID                          : 3
    Format                      : AC-3
    Format/Info                 : Audio Coding 3
    Format settings, Endianness : Big
    Codec ID                    : A_AC3
    Duration                    : 1 h 28 min
    Bit rate mode               : Constant
    Bit rate                    : 384 kb/s
    Channel(s)                  : 6 channels
    Channel positions           : Front: L C R, Side: L R, LFE
    Sampling rate               : 48.0 kHz
    Frame rate                  : 31.250 FPS (1536 SPF)
    Bit depth                   : 16 bits
    Compression mode            : Lossy
    Stream size                 : 242 MiB (7%)
    Title                       : AC3_5.1_Web-DL_Eng
    Language                    : English
    Service kind                : Complete Main
    Default                     : No
    Forced                      : No

    Text
    ID                          : 4
    Format                      : UTF-8
    Codec ID                    : S_TEXT/UTF8
    Codec ID/Info               : UTF-8 Plain Text
    Duration                    : 1 h 26 min
    Bit rate                    : 63 b/s
    Count of elements           : 1455
    Stream size                 : 40.1 KiB (0%)
    Title                       : Sub_Esp
    Language                    : Spanish
    Default                     : Yes
    Forced                      : No

    Menu
    00:00:00.000                : en:1
    00:10:09.458                : en:2
    00:20:21.374                : en:3
    00:32:08.164                : en:4
    00:40:16.705                : en:5
    00:55:40.705                : en:6
    01:03:52.455                : en:7
    01:13:28.580                : en:8
    01:26:21.412                : en:9

  • Peso: 3.56 GiB

Sinopsis

Descargar Peter Pan: La búsqueda del libro de Nunca Jamás (2018) Web-DL 1080p Latino, Mega , Google Drive. El día más largo del año en Neverland finalmente ha llegado. Las fiestas están siendo organizadas por los Red Skins y las celebraciones están en marcha. Para obtener lo mejor del día lleno de diversión y locura, los juegos tradicionales de Pichipock se han organizado para los niños perdidos, las tribus nativas, Peter, Tinker y la familia querida. Cansado de las derrotas, el Capitán Hook se da cuenta de que el día más largo podría volverse en su favor, y crea una red de planes malvados para hacer que Peter y sus amigos se rindan. Él decide manipular los peligros que acechan en los pantanos malditos y el templo dorado.

Ficha técnica

  • Titulo original: Peter Pan: The Quest for the Never Book
  • Fecha de lanzamiento: 23-08-2018
  • Director: Chandrasekaran
  • Género: Animación, Aventura
  • Puntuación: 0.0 0 votos
  • Duración:
    1h 30m

Video trailer de la película

Enlaces de descarga

Rip de Bluray

Descargar Peter Pan: La búsqueda del libro de Nunca Jamás (2018) Web-DL 1080p Latino




Aportes de DPeliculasHDmega la pass es:dpeliculashdmega.org Aportes de CinemaniaHD la pass es:cinemaniahdd.com
Guardado en : Animación , Aventura

Películas relacionadas

Comentarios 0