×

¿Problemas para descargar con Mozilla, EDGE? Deshabilita la opción "Abrir vinculos en una pestaña nueva" tal como lo muestra ésta imagen.

Pet Sematary (1989) REMUX 4K HDR Latino – CMHDD

114 vistas

Información de Pet Sematary (1989) REMUX 4K HDR Latino – CMHDD

Datos de la película

  • Calidad: 4K HDR
  • Audio: Español Latino AC3 2.0 BLURAY - Ingles DTS 5.1 BLURAY
  • Subtitulos: Español Latino PGS
  • Resolución: 3840x2160p
  • Formato: MKV
  • Codec: HEVC
  • Encoder: Dracarys
  • Mediainfo: Clic para Mostrar Datos Ver
  • Format                      : Matroska
    Format version              : Version 4
    File size                   : 43.2 GiB
    Duration                    : 1 h 42 min
    Overall bit rate mode       : Variable
    Overall bit rate            : 60.2 Mb/s
    Movie name                  : Pet Sematary (1989) REMUX 4K HDR Latino - CMHDD
    Encoded date                : UTC 2021-09-15 01:52:24
    Writing application         : mkvmerge v17.0.0 ('Be Ur Friend') 64-bit
    Writing library             : libebml v1.3.5 + libmatroska v1.4.8

    Video
    ID                          : 1
    Format                      : HEVC
    Format/Info                 : High Efficiency Video Coding
    Format profile              : Main 10@L5.1@High
    HDR format                  : SMPTE ST 2086, HDR10 compatible
    Codec ID                    : V_MPEGH/ISO/HEVC
    Duration                    : 1 h 42 min
    Bit rate                    : 55.7 Mb/s
    Width                       : 3 840 pixels
    Height                      : 2 160 pixels
    Display aspect ratio        : 16:9
    Frame rate mode             : Constant
    Frame rate                  : 23.976 (24000/1001) FPS
    Color space                 : YUV
    Chroma subsampling          : 4:2:0 (Type 2)
    Bit depth                   : 10 bits
    Bits/(Pixel*Frame)          : 0.280
    Stream size                 : 39.9 GiB (92%)
    Default                     : Yes
    Forced                      : No
    Color range                 : Limited
    Color primaries             : BT.2020
    Transfer characteristics    : PQ
    Matrix coefficients         : BT.2020 non-constant
    Mastering display color pri : Display P3
    Mastering display luminance : min: 0.0001 cd/m2, max: 1000 cd/m2

    Audio #1
    ID                          : 2
    Format                      : DTS XLL
    Format/Info                 : Digital Theater Systems
    Commercial name             : DTS-HD Master Audio
    Codec ID                    : A_DTS
    Duration                    : 1 h 42 min
    Bit rate mode               : Variable
    Bit rate                    : 3 657 kb/s
    Channel(s)                  : 6 channels
    Channel layout              : C L R Ls Rs LFE
    Sampling rate               : 48.0 kHz
    Frame rate                  : 93.750 FPS (512 SPF)
    Bit depth                   : 24 bits
    Compression mode            : Lossless
    Stream size                 : 2.62 GiB (6%)
    Language                    : English
    Default                     : No
    Forced                      : No

    Audio #2
    ID                          : 3
    Format                      : AC-3
    Format/Info                 : Audio Coding 3
    Commercial name             : Dolby Digital
    Codec ID                    : A_AC3
    Duration                    : 1 h 42 min
    Bit rate mode               : Constant
    Bit rate                    : 640 kb/s
    Channel(s)                  : 6 channels
    Channel layout              : L R C LFE Ls Rs
    Sampling rate               : 48.0 kHz
    Frame rate                  : 31.250 FPS (1536 SPF)
    Compression mode            : Lossy
    Stream size                 : 470 MiB (1%)
    Language                    : English
    Service kind                : Complete Main
    Default                     : No
    Forced                      : No

    Audio #3
    ID                          : 4
    Format                      : AC-3
    Format/Info                 : Audio Coding 3
    Commercial name             : Dolby Digital
    Codec ID                    : A_AC3
    Duration                    : 1 h 42 min
    Bit rate mode               : Constant
    Bit rate                    : 224 kb/s
    Channel(s)                  : 2 channels
    Channel layout              : L R
    Sampling rate               : 48.0 kHz
    Frame rate                  : 31.250 FPS (1536 SPF)
    Compression mode            : Lossy
    Stream size                 : 164 MiB (0%)
    Language                    : Spanish
    Service kind                : Complete Main
    Default                     : Yes
    Forced                      : No

    Text
    ID                          : 5
    Format                      : PGS
    Muxing mode                 : zlib
    Codec ID                    : S_HDMV/PGS
    Codec ID/Info               : Picture based subtitle format used on BDs/HD-DVDs
    Duration                    : 1 h 42 min
    Bit rate                    : 16.6 kb/s
    Count of elements           : 1422
    Stream size                 : 12.1 MiB (0%)
    Language                    : Spanish
    Default                     : No
    Forced                      : No

    Menu
    00:00:00.000                : en:Chapter 1
    00:03:01.389                : en:Chapter 2
    00:09:55.094                : en:Chapter 3
    00:17:22.332                : en:Chapter 4
    00:25:04.461                : en:Chapter 5
    00:33:43.146                : en:Chapter 6
    00:40:47.736                : en:Chapter 7
    00:44:15.903                : en:Chapter 8
    00:47:35.727                : en:Chapter 9
    00:53:26.745                : en:Chapter 10
    01:00:06.144                : en:Chapter 11
    01:09:09.145                : en:Chapter 12
    01:16:42.306                : en:Chapter 13
    01:21:35.181                : en:Chapter 14
    01:26:30.268                : en:Chapter 15
    01:28:25.675                : en:Chapter 16
    01:30:17.453                : en:Chapter 17
    01:35:35.104                : en:Chapter 18
    01:39:33.133                : en:Chapter 19

  • Peso: 43.2 GiB

Sinopsis

Louis Creed, su esposa y sus dos niños se instalan en una vivienda próxima a una carretera con mucho tráfico. Cerca de la casa hay un sendero que lleva a un cementerio de animales y también a un antiguo cementerio indio; según la leyenda, los que sean enterrados allí volverán a la vida. Cuando uno de los niños muere atropellado por un camión, Louis ldecide enterrarlo en el cementerio indio.

Ficha técnica

Video trailer de la película

Enlaces de descarga

Rip de Bluray

Descargar Pet Sematary (1989) REMUX 4K HDR Latino – CMHDD


Aportes de DPeliculasHDmega la pass es:dpeliculashdmega.org Aportes de CinemaniaHD la pass es:cinemaniahdd.com
Guardado en : Terror

Películas relacionadas

descargar Pet Sematary (1989) REMUX 4K HDR Latino – CMHDD 4K HDR 1080p gratis, Pet Sematary (1989) REMUX 4K HDR Latino – CMHDD 4K HDR mega 1 link, Pet Sematary (1989) REMUX 4K HDR Latino – CMHDD 4K HDR pelicula completa, descargar Pet Sematary (1989) REMUX 4K HDR Latino – CMHDD 4K HDR gratis en mega.

Pet Sematary (1989) REMUX 4K HDR Latino – CMHDD pelicula full hd, Pet Sematary (1989) REMUX 4K HDR Latino – CMHDD mega latino, Pet Sematary (1989) REMUX 4K HDR Latino – CMHDD 4k latino, Pet Sematary (1989) REMUX 4K HDR Latino – CMHDD pelicula completa, Pet Sematary (1989) REMUX 4K HDR Latino – CMHDD descargar gratis, descargar Pet Sematary (1989) REMUX 4K HDR Latino – CMHDD pelicula latino, Pet Sematary (1989) REMUX 4K HDR Latino – CMHDD 1 link mega, Pet Sematary (1989) REMUX 4K HDR Latino – CMHDD 1 link google drive, Pet Sematary (1989) REMUX 4K HDR Latino – CMHDD hd 1080p latino.