Pesadilla en el Hotel Normandie (2021) REMUX 1080p Latino

152 vistas

Información de Pesadilla en el Hotel Normandie (2021) REMUX 1080p Latino

Datos de la película

  • Calidad: Full 1080p
  • Audio: Español Latino AC3 2.0 WEB-DL - Ingles DTS 5.1 BLURAY
  • Subtitulos: Español Latino SRT- FORZADOS SRT
  • Resolución: 1920x1080p
  • Formato: MKV
  • Codec: H.264
  • Encoder: Melkor
  • Mediainfo: Clic para Mostrar Datos Ver
  • Pesadilla En El Hotel Normandie (2020) REMUX 1080p Latino.mkv
    Format                      : Matroska
    Format version              : Version 4
    File size                   : 19.7 GiB
    Duration                    : 1 h 44 min
    Overall bit rate mode       : Variable
    Overall bit rate            : 26.9 Mb/s
    Movie name                  : The Night (2020) CinemaniaHDD.Net
    Encoded date                : UTC 2022-01-12 03:18:41
    Writing application         : mkvmerge v56.1.0 ('My Friend') 64-bit
    Writing library             : libebml v1.4.2 + libmatroska v1.6.4
    Attachments                 : CINEMANIAHD.png

    Video
    ID                          : 1
    ID in the original source m : 4113 (0x1011)
    Format                      : AVC
    Format/Info                 : Advanced Video Codec
    Format profile              : High@L4.1
    Format settings             : CABAC / 4 Ref Frames
    Format settings, CABAC      : Yes
    Format settings, Reference  : 4 frames
    Format settings, GOP        : M=3, N=24
    Codec ID                    : V_MPEG4/ISO/AVC
    Duration                    : 1 h 44 min
    Bit rate mode               : Variable
    Bit rate                    : 25.0 Mb/s
    Maximum bit rate            : 35.0 Mb/s
    Width                       : 1 920 pixels
    Height                      : 1 080 pixels
    Display aspect ratio        : 16:9
    Frame rate mode             : Constant
    Frame rate                  : 23.976 (24000/1001) FPS
    Standard                    : NTSC
    Color space                 : YUV
    Chroma subsampling          : 4:2:0
    Bit depth                   : 8 bits
    Scan type                   : Progressive
    Bits/(Pixel*Frame)          : 0.502
    Stream size                 : 18.3 GiB (93%)
    Title                       : REMUX HD1080p [CinemaniaHDD]
    Default                     : Yes
    Forced                      : Yes
    Color range                 : Limited
    Color primaries             : BT.709
    Transfer characteristics    : BT.709
    Matrix coefficients         : BT.709
    Original source medium      : Blu-ray

    Audio #1
    ID                          : 2
    Format                      : AC-3
    Format/Info                 : Audio Coding 3
    Commercial name             : Dolby Digital
    Codec ID                    : A_AC3
    Duration                    : 1 h 44 min
    Bit rate mode               : Constant
    Bit rate                    : 256 kb/s
    Channel(s)                  : 2 channels
    Channel layout              : L R
    Sampling rate               : 48.0 kHz
    Frame rate                  : 31.250 FPS (1536 SPF)
    Compression mode            : Lossy
    Stream size                 : 192 MiB (1%)
    Title                       : Español Latino [CinemaniaHDD]
    Language                    : Spanish
    Service kind                : Complete Main
    Default                     : Yes
    Forced                      : Yes

    Audio #2
    ID                          : 3
    ID in the original source m : 4353 (0x1101)
    Format                      : DTS XLL
    Format/Info                 : Digital Theater Systems
    Commercial name             : DTS-HD Master Audio
    Codec ID                    : A_DTS
    Duration                    : 1 h 44 min
    Bit rate mode               : Variable
    Bit rate                    : 1 679 kb/s
    Channel(s)                  : 6 channels
    Channel layout              : C L R Ls Rs LFE
    Sampling rate               : 48.0 kHz
    Frame rate                  : 93.750 FPS (512 SPF)
    Bit depth                   : 16 bits
    Compression mode            : Lossless
    Stream size                 : 1.23 GiB (6%)
    Title                       : Ingles [CinemaniaHDD]
    Language                    : English
    Default                     : No
    Forced                      : No
    Original source medium      : Blu-ray

    Text #1
    ID                          : 4
    Format                      : UTF-8
    Codec ID                    : S_TEXT/UTF8
    Codec ID/Info               : UTF-8 Plain Text
    Duration                    : 1 h 22 min
    Bit rate                    : 0 b/s
    Count of elements           : 5
    Stream size                 : 166 Bytes (0%)
    Title                       : Forzados-SRT [CinemaniaHDD]
    Language                    : Spanish
    Default                     : Yes
    Forced                      : Yes

    Text #2
    ID                          : 5
    Format                      : UTF-8
    Codec ID                    : S_TEXT/UTF8
    Codec ID/Info               : UTF-8 Plain Text
    Duration                    : 1 h 32 min
    Bit rate                    : 31 b/s
    Count of elements           : 865
    Stream size                 : 21.2 KiB (0%)
    Title                       : Español-SRT [CinemaniaHDD]
    Language                    : Spanish
    Default                     : No
    Forced                      : No

    Text #3
    ID                          : 6
    Format                      : UTF-8
    Codec ID                    : S_TEXT/UTF8
    Codec ID/Info               : UTF-8 Plain Text
    Duration                    : 1 h 31 min
    Bit rate                    : 31 b/s
    Count of elements           : 869
    Stream size                 : 20.7 KiB (0%)
    Title                       : Ingles [CinemaniaHDD]
    Language                    : English
    Default                     : No
    Forced                      : No

    Menu
    00:00:00.000                : Chapter 01
    00:07:40.877                : Chapter 02
    00:17:58.619                : Chapter 03
    00:25:33.365                : Chapter 04
    00:36:09.208                : Chapter 05
    00:46:19.276                : Chapter 06
    00:57:17.016                : Chapter 07
    01:06:50.589                : Chapter 08
    01:14:30.466                : Chapter 09
    01:21:47.027                : Chapter 10
    01:29:26.778                : Chapter 11
    01:37:43.732                : Chapter 12

  • Peso: 19.7 GiB

Sinopsis

Descarga Pesadilla en el Hotel Normandie (2021) REMUX 1080p Latino. Una pareja iraní residente en Estados Unidos queda atrapada en el interior de un hotel cuando sucesos insidiosos les obligan a afrontar los secretos que se han interpuesto entre ellos, en una noche que nunca acaba.

Ficha técnica

Video trailer de la película

Enlaces de descarga

Rip de Bluray

Descargar Pesadilla en el Hotel Normandie (2021) REMUX 1080p Latino




Aportes de DPeliculasHDmega la pass es:dpeliculashdmega.org Aportes de CinemaniaHD la pass es:cinemaniahdd.com
Guardado en : Misterio , Remux , Terror

Películas relacionadas

  • Eternals (2021) REMUX 1080p Latino

    Eternals (2021) REMUX 1080p Latino

    2021
    Eternals (2021) REMUX 1080p Latino

    2h 36m 2021

    Descargar Eternals (2021) REMUX 1080p Latino. Hace millones de años, los seres cósmicos conocidos como...

    Director: Simon Warnock

    Género: Acción

    Actores: Zain Al Rafeea

  • Snowpiercer (2021) Temporada 02 REMUX 1080p Latino

    Snowpiercer (2021) Temporada 02 REMUX 1080p Latino

    2020
    Snowpiercer (2021) Temporada 02 REMUX 1080p Latino

    0h 50m 2020

    Descargar Snowpiercer (2021) Temporada 02 REMUX 1080p Latino. Adaptación de la película de Bong Joon-ho....

    Director: Josh Friedman

    Género: Remux

    Actores: Steven Ogg

  • Reunion (2020) HD 1080p Latino

    Reunion (2020) HD 1080p Latino

    2020
    Reunion (2020) HD 1080p Latino

    1h 35m 2020

    Descargar Reunion (2020) HD 1080p Latino. Una mujer embarazada regresa a la antigua casa familiar de...

    Director: Jake Mahaffy

    Género: HD 1080p

    Actores: Nancy Brunning

Pesadilla en el Hotel Normandie (2021) REMUX 1080p Latino pelicula full hd, Pesadilla en el Hotel Normandie (2021) REMUX 1080p Latino mega latino, Pesadilla en el Hotel Normandie (2021) REMUX 1080p Latino 4k latino, Pesadilla en el Hotel Normandie (2021) REMUX 1080p Latino pelicula completa, Pesadilla en el Hotel Normandie (2021) REMUX 1080p Latino descargar gratis, descargar Pesadilla en el Hotel Normandie (2021) REMUX 1080p Latino pelicula latino, Pesadilla en el Hotel Normandie (2021) REMUX 1080p Latino 1 link mega, Pesadilla en el Hotel Normandie (2021) REMUX 1080p Latino 1 link google drive, Pesadilla en el Hotel Normandie (2021) REMUX 1080p Latino hd 1080p latino.
Comentarios 0