×

¿Problemas para descargar con Mozilla, EDGE? Deshabilita la opción "Abrir vinculos en una pestaña nueva" tal como lo muestra ésta imagen.

Perry Mason (2020) Temporada 1 AMZN WEB-DL 1080p Latino

493 vistas

Información de Perry Mason (2020) Temporada 1 AMZN WEB-DL 1080p Latino

Datos de la película

  • Calidad: WEBDL
  • Audio: Español Latino AC3 2.0 WEB-DL - Ingles AC3 5.1 WEB-DL
  • Subtitulos: Español Latino SRT- FORZADOS SRT
  • Resolución: 1920x1080
  • Formato: MKV
  • Codec: H.264
  • Encoder: cinemaniahdd
  • Mediainfo: Clic para Mostrar Datos Ver
  • Perry Mason T01E01 AMZN WEB-DL 1080p Latino.mkv
    Format                      : Matroska
    Format version              : Version 4
    File size                   : 3.83 GiB
    Duration                    : 56 min 7 s
    Overall bit rate            : 9 767 kb/s
    Movie name                  : Perry Mason T01E01 - CinemaniaHDD.Net
    Encoded date                : UTC 2020-06-23 03:49:59
    Writing application         : mkvmerge v46.0.0 ('No Deeper Escape') 64-bit
    Writing library             : libebml v1.3.10 + libmatroska v1.5.2

    Video
    ID                          : 1
    Format                      : AVC
    Format/Info                 : Advanced Video Codec
    Format profile              : High@L4
    Format settings             : CABAC / 4 Ref Frames
    Format settings, CABAC      : Yes
    Format settings, Reference  : 4 frames
    Codec ID                    : V_MPEG4/ISO/AVC
    Duration                    : 56 min 5 s
    Bit rate mode               : Constant
    Bit rate                    : 8 873 kb/s
    Nominal bit rate            : 10 000 kb/s
    Width                       : 1 920 pixels
    Height                      : 1 080 pixels
    Display aspect ratio        : 16:9
    Frame rate mode             : Constant
    Frame rate                  : 23.976 (24000/1001) FPS
    Color space                 : YUV
    Chroma subsampling          : 4:2:0
    Bit depth                   : 8 bits
    Scan type                   : Progressive
    Bits/(Pixel*Frame)          : 0.178
    Stream size                 : 3.48 GiB (91%)
    Title                       : CinemaniaHDD
    Language                    : English
    Default                     : Yes
    Forced                      : No
    Color range                 : Limited
    Color primaries             : BT.709
    Transfer characteristics    : BT.709
    Matrix coefficients         : BT.709

    Audio #1
    ID                          : 2
    Format                      : AC-3
    Format/Info                 : Audio Coding 3
    Commercial name             : Dolby Digital
    Codec ID                    : A_AC3
    Duration                    : 56 min 6 s
    Bit rate mode               : Constant
    Bit rate                    : 256 kb/s
    Channel(s)                  : 2 channels
    Channel layout              : L R
    Sampling rate               : 48.0 kHz
    Frame rate                  : 31.250 FPS (1536 SPF)
    Compression mode            : Lossy
    Delay relative to video     : -2 s 2 ms
    Stream size                 : 103 MiB (3%)
    Title                       : Español latino [CinemaniaHDD]
    Language                    : Spanish
    Service kind                : Complete Main
    Default                     : Yes
    Forced                      : No

    Audio #2
    ID                          : 3
    Format                      : E-AC-3
    Format/Info                 : Enhanced AC-3
    Commercial name             : Dolby Digital Plus
    Codec ID                    : A_EAC3
    Duration                    : 56 min 6 s
    Bit rate mode               : Constant
    Bit rate                    : 640 kb/s
    Channel(s)                  : 6 channels
    Channel layout              : L R C LFE Ls Rs
    Sampling rate               : 48.0 kHz
    Frame rate                  : 31.250 FPS (1536 SPF)
    Compression mode            : Lossy
    Delay relative to video     : -1 s 974 ms
    Stream size                 : 257 MiB (7%)
    Title                       : Inglés [CinemaniaHDD]
    Language                    : English
    Service kind                : Complete Main
    Default                     : No
    Forced                      : No

    Text #1
    ID                          : 4
    Format                      : UTF-8
    Codec ID                    : S_TEXT/UTF8
    Codec ID/Info               : UTF-8 Plain Text
    Duration                    : 43 min 21 s
    Bit rate                    : 0 b/s
    Count of elements           : 6
    Stream size                 : 172 Bytes (0%)
    Title                       : Forzados [CinemaniaHDD]
    Language                    : Spanish
    Default                     : Yes
    Forced                      : Yes

    Text #2
    ID                          : 5
    Format                      : UTF-8
    Codec ID                    : S_TEXT/UTF8
    Codec ID/Info               : UTF-8 Plain Text
    Duration                    : 53 min 19 s
    Bit rate                    : 49 b/s
    Count of elements           : 649
    Stream size                 : 19.3 KiB (0%)
    Title                       : Español latino [CinemaniaHDD]
    Language                    : Spanish
    Default                     : No
    Forced                      : No

    Text #3
    ID                          : 6
    Format                      : UTF-8
    Codec ID                    : S_TEXT/UTF8
    Codec ID/Info               : UTF-8 Plain Text
    Duration                    : 54 min 5 s
    Bit rate                    : 62 b/s
    Count of elements           : 804
    Stream size                 : 24.6 KiB (0%)
    Title                       : Inglés [CinemaniaHDD]
    Language                    : English
    Default                     : No
    Forced                      : No

     

  • Peso: 3.83 GiB C/U ---- 8 CAPITULOS AGREGADOS

Sinopsis

Basada en las novelas de Erle Stanley Gardner, esta serie original de HBO sigue los orígenes del legendario abogado defensor Perry Mason. En la explosiva Los Ángeles de 1932, un atormentado Mason sobrevive como investigador privado de poca monta cuando el caso más impactante de la década llama a su puerta arrastrándolo a una implacable búsqueda por la verdad.

8 CAPITULOS AGREGADOS

FINAL DE TEMPORADA

Ficha técnica

  • Titulo original: Sorority Girl
  • Fecha de lanzamiento: 01-10-1957 (United States of America)
  • Director: Roger Corman
  • Género: Drama, HBO, Series

Video trailer de la película

Enlaces de descarga

Rip de Bluray

Descargar Perry Mason (2020) Temporada 1 AMZN WEB-DL 1080p Latino




Aportes de DPeliculasHDmega la pass es:dpeliculashdmega.org Aportes de CinemaniaHD la pass es:cinemaniahdd.com
Guardado en : Drama , HBO , Series

Películas relacionadas

descargar Perry Mason (2020) Temporada 1 AMZN WEB-DL 1080p Latino WEBDL 1080p gratis, Perry Mason (2020) Temporada 1 AMZN WEB-DL 1080p Latino WEBDL mega 1 link, Perry Mason (2020) Temporada 1 AMZN WEB-DL 1080p Latino WEBDL serie completa, descargar Perry Mason (2020) Temporada 1 AMZN WEB-DL 1080p Latino WEBDL gratis en mega.

Perry Mason (2020) Temporada 1 AMZN WEB-DL 1080p Latino pelicula full hd, Perry Mason (2020) Temporada 1 AMZN WEB-DL 1080p Latino mega latino, Perry Mason (2020) Temporada 1 AMZN WEB-DL 1080p Latino 4k latino, Perry Mason (2020) Temporada 1 AMZN WEB-DL 1080p Latino pelicula completa, Perry Mason (2020) Temporada 1 AMZN WEB-DL 1080p Latino descargar gratis, descargar Perry Mason (2020) Temporada 1 AMZN WEB-DL 1080p Latino pelicula latino, Perry Mason (2020) Temporada 1 AMZN WEB-DL 1080p Latino 1 link mega, Perry Mason (2020) Temporada 1 AMZN WEB-DL 1080p Latino 1 link google drive, Perry Mason (2020) Temporada 1 AMZN WEB-DL 1080p Latino hd 1080p latino.
Comentarios 2
  • Hax - 01 noviembre, 2020

    También esta serie, me sale el mensaje de acceso denegado!,. no se puede bajar!., espero se pueda arreglar!, gracias!.

    • Dracarys - 02 noviembre, 2020

      Tienes MEGA y ONE DRIVE online