×

¿Problemas para descargar con Mozilla, EDGE? Deshabilita la opción "Abrir vinculos en una pestaña nueva" tal como lo muestra ésta imagen.

Perros de Reserva (1992) Open Matte WEB-DL 1080p Latino

1.486 vistas

Información de Perros de Reserva (1992) Open Matte WEB-DL 1080p Latino

Datos de la película

  • Calidad: WEBDL
  • Audio: Se especifica abajo de la Sinopsis
  • Subtitulos: Español Latino SRT- FORZADOS SRT
  • Resolución: 1920x1080
  • Formato: MKV
  • Codec: H.264
  • Encoder: cinemaniahdd
  • Mediainfo: Clic para Mostrar Datos Ver
  • Perros de Reserva (1992) Open Matte WEB-DL 1080p Latino.mkv
    Format                      : Matroska
    Format version              : Version 4
    File size                   : 5.89 GiB
    Duration                    : 1 h 39 min
    Overall bit rate mode       : Variable
    Overall bit rate            : 8 477 kb/s
    Movie name                  : Perros de Reserva (1992) Open Matte WEB-DL 1080p Latino
    Encoded date                : UTC 2019-09-18 04:47:57
    Writing application         : mkvmerge v35.0.0 ('All The Love In The World') 64-bit
    Writing library             : libebml v1.3.9 + libmatroska v1.5.2

    Video
    ID                          : 1
    Format                      : AVC
    Format/Info                 : Advanced Video Codec
    Format profile              : High@L4
    Format settings             : CABAC / 4 Ref Frames
    Format settings, CABAC      : Yes
    Format settings, ReFrames   : 4 frames
    Codec ID                    : V_MPEG4/ISO/AVC
    Duration                    : 1 h 39 min
    Bit rate mode               : Variable
    Bit rate                    : 7 579 kb/s
    Maximum bit rate            : 15.0 Mb/s
    Width                       : 1 920 pixels
    Height                      : 1 080 pixels
    Display aspect ratio        : 16:9
    Frame rate mode             : Constant
    Frame rate                  : 23.976 (24000/1001) FPS
    Color space                 : YUV
    Chroma subsampling          : 4:2:0
    Bit depth                   : 8 bits
    Scan type                   : Progressive
    Bits/(Pixel*Frame)          : 0.152
    Stream size                 : 5.26 GiB (89%)
    Title                       : CinemaniaHDD
    Language                    : English
    Default                     : Yes
    Forced                      : No
    Color range                 : Limited
    Color primaries             : BT.709
    Transfer characteristics    : BT.709
    Matrix coefficients         : BT.709

    Audio #1
    ID                          : 2
    Format                      : AC-3
    Format/Info                 : Audio Coding 3
    Commercial name             : Dolby Digital
    Codec ID                    : A_AC3
    Duration                    : 1 h 39 min
    Bit rate mode               : Constant
    Bit rate                    : 256 kb/s
    Channel(s)                  : 2 channels
    Channel layout              : L R
    Sampling rate               : 48.0 kHz
    Frame rate                  : 31.250 FPS (1536 SPF)
    Bit depth                   : 16 bits
    Compression mode            : Lossy
    Stream size                 : 182 MiB (3%)
    Title                       : Español latino [CinemaniaHDD]
    Language                    : Spanish
    Service kind                : Complete Main
    Default                     : Yes
    Forced                      : No

    Audio #2
    ID                          : 3
    Format                      : E-AC-3
    Format/Info                 : Enhanced AC-3
    Commercial name             : Dolby Digital Plus
    Codec ID                    : A_EAC3
    Duration                    : 1 h 39 min
    Bit rate mode               : Constant
    Bit rate                    : 640 kb/s
    Channel(s)                  : 6 channels
    Channel layout              : L R C LFE Ls Rs
    Sampling rate               : 48.0 kHz
    Frame rate                  : 31.250 FPS (1536 SPF)
    Compression mode            : Lossy
    Stream size                 : 455 MiB (8%)
    Title                       : Inglés [CinemaniaHDD]
    Language                    : English
    Service kind                : Complete Main
    Default                     : No
    Forced                      : No

    Text #1
    ID                          : 4
    Format                      : UTF-8
    Codec ID                    : S_TEXT/UTF8
    Codec ID/Info               : UTF-8 Plain Text
    Duration                    : 55 min 50 s
    Bit rate                    : 0 b/s
    Count of elements           : 3
    Stream size                 : 48.0 Bytes (0%)
    Title                       : Forzados [CinemaniaHDD]
    Language                    : Spanish
    Default                     : Yes
    Forced                      : Yes

    Text #2
    ID                          : 5
    Format                      : UTF-8
    Codec ID                    : S_TEXT/UTF8
    Codec ID/Info               : UTF-8 Plain Text
    Duration                    : 1 h 35 min
    Bit rate                    : 84 b/s
    Count of elements           : 1607
    Stream size                 : 58.5 KiB (0%)
    Title                       : Español latino [CinemaniaHDD]
    Language                    : Spanish
    Default                     : No
    Forced                      : No

    Menu
    00:00:00.000                : :Madonna / No Tipping
    00:07:40.480                : :Main Title
    00:09:51.527                : :"Are You a Doctor?"
    00:11:21.826                : :Waiting for Joe
    00:15:22.483                : :"We Got Set Up!"
    00:19:07.875                : :Who Did What and When
    00:21:44.072                : :Working with Rats and Psychos
    00:26:40.160                : :Mr. White / The Job
    00:28:25.682                : :Mr. White Feels Guilty
    00:33:10.717                : :"Trigger-Happy Madman"
    00:37:56.293                : :Mr. Blonde / Getting Around Parole
    00:45:42.760                : :Eddie Has Some Questions
    00:52:45.515                : :In a Cop's Ear
    01:00:28.102                : :Dead Man Talking
    01:03:59.105                : :Mr. Orange / Making Friends
    01:06:44.311                : :The Commode Story
    01:14:33.989                : :Eddie and Lady E
    01:19:55.477                : :Colour Co-Ordination
    01:23:04.124                : :The Layout
    01:24:49.896                : :An Orange-White Getaway
    01:27:13.581                : :Showdown Among Pros
    01:35:28.742                : :End Credits

     

  • Peso: 5.89 GiB

Sinopsis

Descargar Perros de Reserva (1992) Open Matte WEB-DL 1080p Latino, Una banda organizada formada por seis individuos es contratada para dar un golpe. Anteriormente varios de los miembros no se conocían entre sí, por lo que entre ellos usan nombres en clave. El objetivo: atracar una empresa para llevarse unos diamantes. Pero, antes de que suene la alarma, la policía ya está allí. Algunos mueren en el atraco, y el resto se reúne en el lugar convenido.

Español Latino 2.0 – Ingles 5.1 WEB-DL

Ficha técnica

Video trailer de la película

Enlaces de descarga

Rip de Bluray

Descargar Perros de Reserva (1992) Open Matte WEB-DL 1080p Latino




Aportes de DPeliculasHDmega la pass es:dpeliculashdmega.org Aportes de CinemaniaHD la pass es:cinemaniahdd.com
Guardado en : Crimen , OPEN MATTE , Suspenso

Películas relacionadas

  • Wire Room (2022) HD 1080p Latino

    Wire Room (2022) HD 1080p Latino

    2022
    Wire Room (2022) HD 1080p Latino

    1h 37m 2022

    Descargar Wire Room (2022) HD 1080p Latino. Mientras está de servicio en la sala de cables, un agente...

    Director: Matt Eskandari

    Género: Acción

    Actores: Texas Battle

  • Wire Room (2022) PLACEBO Full HD 1080p Latino

    Wire Room (2022) PLACEBO Full HD 1080p Latino

    2022
    Wire Room (2022) PLACEBO Full HD 1080p Latino

    1h 37m 2022

    Descargar Wire Room (2022) PLACEBO Full HD 1080p Latino. Mientras está de servicio en la sala de cables,...

    Director: Matt Eskandari

    Género: Acción

    Actores: Texas Battle

  • Wire Room (2022) REMUX 1080p Latino

    Wire Room (2022) REMUX 1080p Latino

    2022
    Wire Room (2022) REMUX 1080p Latino

    1h 37m 2022

    Descargar Wire Room (2022) REMUX 1080p Latino. Mientras está de servicio en la sala de cables, un agente...

    Director: Matt Eskandari

    Género: Acción

    Actores: Texas Battle

  • Alarido (2022) HD 1080p Latino

    Alarido (2022) HD 1080p Latino

    2022
    Alarido (2022) HD 1080p Latino

    1h 29m 2022

    Descargar Alarido (2022) HD 1080p Latino. Una joven madre soltera es cautiva junto con sus dos hijos...

    Director: D.J. Caruso

    Género: HD 1080p

    Actores: Vincent Gallo

  • Alarido (2022) PLACEBO Full HD 1080p Latino

    Alarido (2022) PLACEBO Full HD 1080p Latino

    2022
    Alarido (2022) PLACEBO Full HD 1080p Latino

    1h 29m 2022

    Descargar Alarido (2022) PLACEBO Full HD 1080p Latino. Una joven madre soltera es cautiva junto con sus...

    Director: D.J. Caruso

    Género: FULL 1080p Plateadas

    Actores: Vincent Gallo

descargar Perros de Reserva (1992) Open Matte WEB-DL 1080p Latino WEBDL 1080p gratis, Perros de Reserva (1992) Open Matte WEB-DL 1080p Latino WEBDL mega 1 link, Perros de Reserva (1992) Open Matte WEB-DL 1080p Latino WEBDL pelicula completa, descargar Perros de Reserva (1992) Open Matte WEB-DL 1080p Latino WEBDL gratis en mega.

Perros de Reserva (1992) Open Matte WEB-DL 1080p Latino pelicula full hd, Perros de Reserva (1992) Open Matte WEB-DL 1080p Latino mega latino, Perros de Reserva (1992) Open Matte WEB-DL 1080p Latino 4k latino, Perros de Reserva (1992) Open Matte WEB-DL 1080p Latino pelicula completa, Perros de Reserva (1992) Open Matte WEB-DL 1080p Latino descargar gratis, descargar Perros de Reserva (1992) Open Matte WEB-DL 1080p Latino pelicula latino, Perros de Reserva (1992) Open Matte WEB-DL 1080p Latino 1 link mega, Perros de Reserva (1992) Open Matte WEB-DL 1080p Latino 1 link google drive, Perros de Reserva (1992) Open Matte WEB-DL 1080p Latino hd 1080p latino.
Comentarios 0