×

¿Problemas para descargar con Mozilla, EDGE? Deshabilita la opción "Abrir vinculos en una pestaña nueva" tal como lo muestra ésta imagen.

El Perfume. Historia De Un Asesino (2006) Full HD 1080p Latino

418 vistas

Información de El Perfume. Historia De Un Asesino (2006) Full HD 1080p Latino

Datos de la película

  • Calidad: Full 1080p
  • Audio: Español Latino AC3 2.0 DVD - Ingles DTS 5.1 BLURAY
  • Subtitulos: Español Latino SRT- FORZADOS SRT
  • Resolución: 1920x1080p
  • Formato: MKV
  • Codec: H.264
  • Encoder: CinefiloCool
  • Mediainfo: Clic para Mostrar Datos Ver
  • Perfume La Historia De Un Asesino (2006) Full HD 1080p Latino-CMHDD.mkv
    Format                      : Matroska
    Format version              : Version 4
    File size                   : 7.37 GiB
    Duration                    : 2 h 27 min
    Overall bit rate            : 7 160 kb/s
    Movie name                  : Perfume The Story Of A Murderer (2006) CinemaniaHDD.Net
    Encoded date                : UTC 2020-09-27 02:31:39
    Writing application         : mkvmerge v46.0.0 ('No Deeper Escape') 64-bit
    Writing library             : libebml v1.3.10 + libmatroska v1.5.2
    Attachments                 : CINEMANIAHD.png

    Video
    ID                          : 1
    Format                      : AVC
    Format/Info                 : Advanced Video Codec
    Format profile              : High@L4.1
    Format settings             : CABAC / 4 Ref Frames
    Format settings, CABAC      : Yes
    Format settings, Reference  : 4 frames
    Codec ID                    : V_MPEG4/ISO/AVC
    Duration                    : 2 h 27 min
    Bit rate                    : 5 388 kb/s
    Width                       : 1 920 pixels
    Height                      : 1 080 pixels
    Display aspect ratio        : 16:9
    Frame rate mode             : Constant
    Frame rate                  : 23.976 (24000/1001) FPS
    Color space                 : YUV
    Chroma subsampling          : 4:2:0
    Bit depth                   : 8 bits
    Scan type                   : Progressive
    Bits/(Pixel*Frame)          : 0.108
    Stream size                 : 5.55 GiB (75%)
    Title                       : Full HD1080p [CinemaniaHDD]
    Writing library             : x264 core 157 r2935 545de2f
    Encoding settings           : cabac=1 / ref=4 / deblock=1:0:0 / analyse=0x3:0x133 / me=tesa / subme=11 / psy=1 / psy_rd=1.00:0.00 / mixed_ref=1 / me_range=24 / chroma_me=1 / trellis=2 / 8x8dct=1 / cqm=0 / deadzone=21,11 / fast_pskip=0 / chroma_qp_offset=-2 / threads=24 / lookahead_threads=6 / sliced_threads=0 / nr=0 / decimate=1 / interlaced=0 / bluray_compat=0 / constrained_intra=0 / bframes=16 / b_pyramid=2 / b_adapt=2 / b_bias=0 / direct=3 / weightb=1 / open_gop=0 / weightp=2 / keyint=240 / keyint_min=24 / scenecut=40 / intra_refresh=0 / rc_lookahead=60 / rc=crf / mbtree=1 / crf=20.0 / qcomp=0.60 / qpmin=0 / qpmax=69 / qpstep=4 / vbv_maxrate=62500 / vbv_bufsize=78125 / crf_max=0.0 / nal_hrd=none / filler=0 / ip_ratio=1.40 / aq=1:1.00
    Default                     : Yes
    Forced                      : Yes
    Color range                 : Limited
    Color primaries             : BT.709
    Transfer characteristics    : BT.709
    Matrix coefficients         : BT.709

    Audio #1
    ID                          : 2
    Format                      : AC-3
    Format/Info                 : Audio Coding 3
    Commercial name             : Dolby Digital
    Codec ID                    : A_AC3
    Duration                    : 2 h 27 min
    Bit rate mode               : Constant
    Bit rate                    : 256 kb/s
    Channel(s)                  : 2 channels
    Channel layout              : L R
    Sampling rate               : 48.0 kHz
    Frame rate                  : 31.250 FPS (1536 SPF)
    Compression mode            : Lossy
    Stream size                 : 270 MiB (4%)
    Title                       : Español Latino [CinemaniaHDD]
    Language                    : Spanish
    Service kind                : Complete Main
    Default                     : Yes
    Forced                      : Yes

    Audio #2
    ID                          : 3
    Format                      : DTS
    Format/Info                 : Digital Theater Systems
    Codec ID                    : A_DTS
    Duration                    : 2 h 27 min
    Bit rate mode               : Constant
    Bit rate                    : 1 509 kb/s
    Channel(s)                  : 6 channels
    Channel layout              : C L R Ls Rs LFE
    Sampling rate               : 48.0 kHz
    Frame rate                  : 93.750 FPS (512 SPF)
    Bit depth                   : 24 bits
    Compression mode            : Lossy
    Stream size                 : 1.55 GiB (21%)
    Title                       : Ingles [CinemaniaHDD]
    Language                    : English
    Default                     : No
    Forced                      : No

    Text #1
    ID                          : 4
    Format                      : UTF-8
    Codec ID                    : S_TEXT/UTF8
    Codec ID/Info               : UTF-8 Plain Text
    Duration                    : 1 h 3 min
    Bit rate                    : 0 b/s
    Count of elements           : 2
    Stream size                 : 74.0 Bytes (0%)
    Title                       : Forzados-SRT [CinemaniaHDD]
    Language                    : Spanish
    Default                     : Yes
    Forced                      : Yes

    Text #2
    ID                          : 5
    Format                      : UTF-8
    Codec ID                    : S_TEXT/UTF8
    Codec ID/Info               : UTF-8 Plain Text
    Duration                    : 2 h 16 min
    Bit rate                    : 32 b/s
    Count of elements           : 876
    Stream size                 : 32.9 KiB (0%)
    Title                       : Español-SRT [CinemaniaHDD]
    Language                    : Spanish
    Default                     : No
    Forced                      : No

    Text #3
    ID                          : 6
    Format                      : PGS
    Muxing mode                 : zlib
    Codec ID                    : S_HDMV/PGS
    Codec ID/Info               : Picture based subtitle format used on BDs/HD-DVDs
    Duration                    : 2 h 20 min
    Bit rate                    : 18.8 kb/s
    Count of elements           : 1548
    Stream size                 : 18.9 MiB (0%)
    Title                       : Ingles-PGS [CinemaniaHDD]
    Language                    : English
    Default                     : No
    Forced                      : No

    Menu
    00:00:00.000                : en:The Realm of Scent
    00:11:01.995                : en:Madame Gaillard's Orphanage
    00:17:55.992                : en:A Utopia of Unexplored Smells
    00:27:41.994                : en:Giuseppe Baldini
    00:39:17.939                : en:Essential Oils
    00:49:25.921                : en:Teach Me Everything
    00:59:30.942                : en:Solitude
    01:08:52.962                : en:And the Gods Began to Smile
    01:18:40.925                : en:Journeyman
    01:26:52.958                : en:Hide and Seek
    01:39:06.858                : en:Until His Collection is Complete
    01:47:52.925                : en:On the Run
    01:56:55.926                : en:Laura
    02:05:15.883                : en:Remember This
    02:14:40.906                : en:The Thirteenth Essence
    02:17:46.884                : en:End Credits

  • Peso: 7.37 GiB

Sinopsis

Descargar El Perfume. Historia De Un Asesino (2006) Full HD 1080p Latino. Francia, siglo XVIII. Adaptación del famoso best-seller de Patrick Süskind. Jean Baptiste Grenouille nació en medio del hedor de los restos de pescado de un mercado y fue abandonado por su madre en la basura. Las autoridades se hicieron cargo de él y lo mandaron a un hospicio. Creció en un ambiente hostil; nadie le quería, porque había en él algo excepcional: carecía por completo de olor. Estaba, sin embargo, dotado de un extraordinario sentido del olfato. A los veinte años, después de trabajar en una curtiduría, consiguió trabajo en casa del perfumista Bandini, que le enseñó a destilar esencias. Pero él vivía obsesionado con la idea de atrapar otros olores: el olor del cristal, del cobre, pero, sobre todo, el olor de algunas mujeres.

Ficha técnica

Video trailer de la película

Enlaces de descarga

Rip de Bluray

Descargar El Perfume. Historia De Un Asesino (2006) Full HD 1080p Latino




Aportes de DPeliculasHDmega la pass es:dpeliculashdmega.org Aportes de CinemaniaHD la pass es:cinemaniahdd.com

Películas relacionadas

descargar El Perfume. Historia De Un Asesino (2006) Full HD 1080p Latino Full 1080p 1080p gratis, El Perfume. Historia De Un Asesino (2006) Full HD 1080p Latino Full 1080p mega 1 link, El Perfume. Historia De Un Asesino (2006) Full HD 1080p Latino Full 1080p pelicula completa, descargar El Perfume. Historia De Un Asesino (2006) Full HD 1080p Latino Full 1080p gratis en mega.

El Perfume. Historia De Un Asesino (2006) Full HD 1080p Latino pelicula full hd, El Perfume. Historia De Un Asesino (2006) Full HD 1080p Latino mega latino, El Perfume. Historia De Un Asesino (2006) Full HD 1080p Latino 4k latino, El Perfume. Historia De Un Asesino (2006) Full HD 1080p Latino pelicula completa, El Perfume. Historia De Un Asesino (2006) Full HD 1080p Latino descargar gratis, descargar El Perfume. Historia De Un Asesino (2006) Full HD 1080p Latino pelicula latino, El Perfume. Historia De Un Asesino (2006) Full HD 1080p Latino 1 link mega, El Perfume. Historia De Un Asesino (2006) Full HD 1080p Latino 1 link google drive, El Perfume. Historia De Un Asesino (2006) Full HD 1080p Latino hd 1080p latino.
Comentarios 0