×

¿Problemas para descargar con Mozilla, EDGE? Deshabilita la opción "Abrir vinculos en una pestaña nueva" tal como lo muestra ésta imagen.

Perdona si te llamo amor (2014) REMUX 1080p Español-CMHDD

91 vistas

Información de Perdona si te llamo amor (2014) REMUX 1080p Español-CMHDD

Datos de la película

  • Calidad: Full 1080p
  • Audio: Español DTS 5.1 BLURAY
  • Subtitulos: No
  • Resolución: 1920x1080p
  • Formato: MKV
  • Codec: H.264
  • Encoder: CinefiloCool
  • Mediainfo: Clic para Mostrar Datos Ver
  • Pedona.Si.Te.Llamo.Amor.2014.Bluray.REMUX.1080p.AVC.Spanish-CC@CMHDD.mkv
    Format                      : Matroska
    Format version              : Version 4
    File size                   : 21.2 GiB
    Duration                    : 1 h 59 min
    Overall bit rate mode       : Variable
    Overall bit rate            : 25.3 Mb/s
    Movie name                  : Pedona Si Te Llamo Amor (2014) CinemaniaHDD.Net
    Encoded date                : UTC 2024-02-10 07:21:48
    Writing application         : mkvmerge v56.1.0 ('My Friend') 64-bit
    Writing library             : libebml v1.4.2 + libmatroska v1.6.4
    Attachments                 : CINEMANIAHD.png / CINEMANIAHD.png / CINEMANIAHD.png

    Video
    ID                          : 1
    ID in the original source m : 4113 (0x1011)
    Format                      : AVC
    Format/Info                 : Advanced Video Codec
    Format profile              : High@L4.1
    Format settings             : CABAC / 4 Ref Frames
    Format settings, CABAC      : Yes
    Format settings, Reference  : 4 frames
    Format settings, GOP        : M=3, N=24
    Codec ID                    : V_MPEG4/ISO/AVC
    Duration                    : 1 h 59 min
    Bit rate mode               : Constant
    Bit rate                    : 24.0 Mb/s
    Width                       : 1 920 pixels
    Height                      : 1 080 pixels
    Display aspect ratio        : 16:9
    Frame rate mode             : Constant
    Frame rate                  : 24.000 FPS
    Standard                    : NTSC
    Color space                 : YUV
    Chroma subsampling          : 4:2:0
    Bit depth                   : 8 bits
    Scan type                   : Progressive
    Bits/(Pixel*Frame)          : 0.482
    Stream size                 : 19.6 GiB (92%)
    Title                       : REMUX HD1080p [CinemaniaHDD]
    Default                     : Yes
    Forced                      : Yes
    Color range                 : Limited
    Color primaries             : BT.709
    Transfer characteristics    : BT.709
    Matrix coefficients         : BT.709
    Original source medium      : Blu-ray

    Audio
    ID                          : 2
    ID in the original source m : 4352 (0x1100)
    Format                      : DTS XLL
    Format/Info                 : Digital Theater Systems
    Commercial name             : DTS-HD Master Audio
    Codec ID                    : A_DTS
    Duration                    : 1 h 59 min
    Bit rate mode               : Variable
    Bit rate                    : 1 906 kb/s
    Channel(s)                  : 6 channels
    Channel layout              : C L R Ls Rs LFE
    Sampling rate               : 48.0 kHz
    Frame rate                  : 93.750 FPS (512 SPF)
    Bit depth                   : 16 bits
    Compression mode            : Lossless
    Stream size                 : 1.60 GiB (8%)
    Title                       : Español [CinemaniaHDD]
    Language                    : Spanish
    Default                     : Yes
    Forced                      : No
    Original source medium      : Blu-ray

    Menu
    00:00:00.000                : Chapter 01
    00:12:07.000                : Chapter 02
    00:24:38.083                : Chapter 03
    00:37:56.041                : Chapter 04
    00:48:55.708                : Chapter 05
    01:02:26.583                : Chapter 06
    01:14:13.916                : Chapter 07
    01:22:32.791                : Chapter 08
    01:33:57.708                : Chapter 09
    01:49:26.666                : Chapter 10

  • Peso: 21.2 GiB

Sinopsis

Descargar Perdona si te llamo amor (2014) REMUX 1080p Español-CMHDD. Álex, un joven ejecutivo publicitario, lo tiene todo: es atractivo, inteligente y brillante, pero aún no ha alcanzado la estabilidad emocional que tanto ansía. Cuando su novia rechaza su propuesta de matrimonio, su idílica existencia empieza a desmoronarse. En ese momento, irrumpe en su vida como un vendaval Niki, una jovencísima estudiante que no sólo consigue seducirlo y enamorarlo, sino le da un giro total a su vida. Adaptación de la novela homónima de Federico Moccia, popularísimo escritor italiano, que también fue llevada al cine en Italia.

Audio Español Iberico DTS-HD 5.1 Bluray

Ficha técnica

Video trailer de la película

Enlaces de descarga

Rip de Bluray

Descargar Perdona si te llamo amor (2014) REMUX 1080p Español-CMHDD


Aportes de DPeliculasHDmega la pass es:dpeliculashdmega.org Aportes de CinemaniaHD la pass es:cinemaniahdd.com Aportes recientes:cinemaniahdd.net
Guardado en : Drama , Remux , Romance

Películas relacionadas

descargar Perdona si te llamo amor (2014) REMUX 1080p Español-CMHDD Full 1080p 1080p gratis, Perdona si te llamo amor (2014) REMUX 1080p Español-CMHDD Full 1080p mega 1 link, Perdona si te llamo amor (2014) REMUX 1080p Español-CMHDD Full 1080p pelicula completa, descargar Perdona si te llamo amor (2014) REMUX 1080p Español-CMHDD Full 1080p gratis en mega.

Perdona si te llamo amor (2014) REMUX 1080p Español-CMHDD pelicula full hd, Perdona si te llamo amor (2014) REMUX 1080p Español-CMHDD mega latino, Perdona si te llamo amor (2014) REMUX 1080p Español-CMHDD 4k latino, Perdona si te llamo amor (2014) REMUX 1080p Español-CMHDD pelicula completa, Perdona si te llamo amor (2014) REMUX 1080p Español-CMHDD descargar gratis, descargar Perdona si te llamo amor (2014) REMUX 1080p Español-CMHDD pelicula latino, Perdona si te llamo amor (2014) REMUX 1080p Español-CMHDD 1 link mega, Perdona si te llamo amor (2014) REMUX 1080p Español-CMHDD 1 link google drive, Perdona si te llamo amor (2014) REMUX 1080p Español-CMHDD hd 1080p latino.
Comentarios 0