×

¿Problemas para descargar con Mozilla, EDGE? Deshabilita la opción "Abrir vinculos en una pestaña nueva" tal como lo muestra ésta imagen.

Perdona si te llamo amor (2014) Full HD 1080p Español-CMHDD

128 vistas

Información de Perdona si te llamo amor (2014) Full HD 1080p Español-CMHDD

Datos de la película

  • Calidad: Full 1080p
  • Audio: Español DTS 5.1 BLURAY
  • Subtitulos: No
  • Resolución: 1920x1080p
  • Formato: MKV
  • Codec: H.264
  • Encoder: CinefiloCool
  • Mediainfo: Clic para Mostrar Datos Ver
  • Pedona.Si.Te.Llamo.Amor.2014.Bluray.FullHD.1080p.x264.Spanish-CC@CMHDD.mkv
    Format                      : Matroska
    Format version              : Version 4
    File size                   : 3.83 GiB
    Duration                    : 1 h 59 min
    Overall bit rate            : 4 567 kb/s
    Movie name                  : Pedona Si Te Llamo Amor (2014) CinemaniaHDD.Net
    Encoded date                : UTC 2024-02-10 08:59:13
    Writing application         : mkvmerge v56.1.0 ('My Friend') 64-bit
    Writing library             : libebml v1.4.2 + libmatroska v1.6.4
    Attachments                 : CINEMANIAHD.png / CINEMANIAHD.png / CINEMANIAHD.png

    Video
    ID                          : 1
    Format                      : AVC
    Format/Info                 : Advanced Video Codec
    Format profile              : High@L4.1
    Format settings             : CABAC / 4 Ref Frames
    Format settings, CABAC      : Yes
    Format settings, Reference  : 4 frames
    Codec ID                    : V_MPEG4/ISO/AVC
    Duration                    : 1 h 59 min
    Bit rate                    : 3 056 kb/s
    Width                       : 1 920 pixels
    Height                      : 1 080 pixels
    Display aspect ratio        : 16:9
    Frame rate mode             : Constant
    Frame rate                  : 24.000 FPS
    Color space                 : YUV
    Chroma subsampling          : 4:2:0
    Bit depth                   : 8 bits
    Scan type                   : Progressive
    Bits/(Pixel*Frame)          : 0.061
    Stream size                 : 2.56 GiB (67%)
    Title                       : Full HD1080p [CinemaniaHDD]
    Writing library             : x264 core 163 r3059 b684ebe0
    Encoding settings           : cabac=1 / ref=4 / deblock=1:0:0 / analyse=0x3:0x133 / me=tesa / subme=11 / psy=1 / psy_rd=1.00:0.00 / mixed_ref=1 / me_range=24 / chroma_me=1 / trellis=2 / 8x8dct=1 / cqm=0 / deadzone=21,11 / fast_pskip=0 / chroma_qp_offset=-2 / threads=24 / lookahead_threads=6 / sliced_threads=0 / nr=0 / decimate=1 / interlaced=0 / bluray_compat=0 / constrained_intra=0 / bframes=16 / b_pyramid=2 / b_adapt=2 / b_bias=0 / direct=3 / weightb=1 / open_gop=0 / weightp=2 / keyint=240 / keyint_min=24 / scenecut=40 / intra_refresh=0 / rc_lookahead=60 / rc=crf / mbtree=1 / crf=20.0 / qcomp=0.60 / qpmin=0 / qpmax=69 / qpstep=4 / vbv_maxrate=62500 / vbv_bufsize=78125 / crf_max=0.0 / nal_hrd=none / filler=0 / ip_ratio=1.40 / aq=1:1.00
    Default                     : Yes
    Forced                      : Yes
    Color range                 : Limited
    Color primaries             : BT.709
    Transfer characteristics    : BT.709
    Matrix coefficients         : BT.709

    Audio
    ID                          : 2
    Format                      : DTS
    Format/Info                 : Digital Theater Systems
    Codec ID                    : A_DTS
    Duration                    : 1 h 59 min
    Bit rate mode               : Constant
    Bit rate                    : 1 509 kb/s
    Channel(s)                  : 6 channels
    Channel layout              : C L R Ls Rs LFE
    Sampling rate               : 48.0 kHz
    Frame rate                  : 93.750 FPS (512 SPF)
    Bit depth                   : 24 bits
    Compression mode            : Lossy
    Stream size                 : 1.26 GiB (33%)
    Title                       : Español [CinemaniaHDD]
    Language                    : Spanish
    Default                     : Yes
    Forced                      : Yes

    Menu
    00:00:00.000                : Chapter 01
    00:12:07.000                : Chapter 02
    00:24:38.083                : Chapter 03
    00:37:56.041                : Chapter 04
    00:48:55.708                : Chapter 05
    01:02:26.583                : Chapter 06
    01:14:13.916                : Chapter 07
    01:22:32.791                : Chapter 08
    01:33:57.708                : Chapter 09
    01:49:26.666                : Chapter 10

  • Peso: 3.83 GiB

Sinopsis

Descargar Perdona si te llamo amor (2014) Full HD 1080p Español-CMHDD. Álex, un joven ejecutivo publicitario, lo tiene todo: es atractivo, inteligente y brillante, pero aún no ha alcanzado la estabilidad emocional que tanto ansía. Cuando su novia rechaza su propuesta de matrimonio, su idílica existencia empieza a desmoronarse. En ese momento, irrumpe en su vida como un vendaval Niki, una jovencísima estudiante que no sólo consigue seducirlo y enamorarlo, sino le da un giro total a su vida. Adaptación de la novela homónima de Federico Moccia, popularísimo escritor italiano, que también fue llevada al cine en Italia.

Ficha técnica

Video trailer de la película

Enlaces de descarga

Rip de Bluray

Descargar Perdona si te llamo amor (2014) Full HD 1080p Español-CMHDD




Aportes de DPeliculasHDmega la pass es:dpeliculashdmega.org Aportes de CinemaniaHD la pass es:cinemaniahdd.com Aportes recientes:cinemaniahdd.net

Películas relacionadas

descargar Perdona si te llamo amor (2014) Full HD 1080p Español-CMHDD Full 1080p 1080p gratis, Perdona si te llamo amor (2014) Full HD 1080p Español-CMHDD Full 1080p mega 1 link, Perdona si te llamo amor (2014) Full HD 1080p Español-CMHDD Full 1080p pelicula completa, descargar Perdona si te llamo amor (2014) Full HD 1080p Español-CMHDD Full 1080p gratis en mega.

Perdona si te llamo amor (2014) Full HD 1080p Español-CMHDD pelicula full hd, Perdona si te llamo amor (2014) Full HD 1080p Español-CMHDD mega latino, Perdona si te llamo amor (2014) Full HD 1080p Español-CMHDD 4k latino, Perdona si te llamo amor (2014) Full HD 1080p Español-CMHDD pelicula completa, Perdona si te llamo amor (2014) Full HD 1080p Español-CMHDD descargar gratis, descargar Perdona si te llamo amor (2014) Full HD 1080p Español-CMHDD pelicula latino, Perdona si te llamo amor (2014) Full HD 1080p Español-CMHDD 1 link mega, Perdona si te llamo amor (2014) Full HD 1080p Español-CMHDD 1 link google drive, Perdona si te llamo amor (2014) Full HD 1080p Español-CMHDD hd 1080p latino.
Comentarios 0