×

¿Problemas para descargar con Mozilla, EDGE? Deshabilita la opción "Abrir vinculos en una pestaña nueva" tal como lo muestra ésta imagen.

Perdí mi cuerpo (2019) NF WEB-DL 1080p Latino

818 vistas

Información de Perdí mi cuerpo (2019) NF WEB-DL 1080p Latino

Datos de la película

  • Calidad: WEBDL
  • Audio: Español Latino AC3 5.1 Netflix - Ingles AC3 5.1 Netflix
  • Subtitulos: Español Latino SRT- FORZADOS SRT
  • Resolución: 1920x1080
  • Formato: MKV
  • Codec: H.264
  • Encoder: cinemaniahdd
  • Mediainfo: Clic para Mostrar Datos Ver
  • Perdí mi cuerpo (2019) NF WEB-DL 1080p Latino.mkv
    Format                      : Matroska
    Format version              : Version 4
    File size                   : 1.49 GiB
    Duration                    : 1 h 21 min
    Overall bit rate mode       : Variable
    Overall bit rate            : 2 620 kb/s
    Movie name                  : Perdí mi cuerpo (2019) - CinemaniaHDD.Net
    Encoded date                : UTC 2019-11-29 09:13:37
    Writing application         : mkvmerge v38.0.0 ('The Silent Type') 64-bit
    Writing library             : libebml v1.3.9 + libmatroska v1.5.2

    Video
    ID                          : 1
    Format                      : AVC
    Format/Info                 : Advanced Video Codec
    Format profile              : Main@L4
    Format settings             : CABAC / 3 Ref Frames
    Format settings, CABAC      : Yes
    Format settings, ReFrames   : 3 frames
    Codec ID                    : V_MPEG4/ISO/AVC
    Duration                    : 1 h 21 min
    Bit rate mode               : Variable
    Bit rate                    : 1 870 kb/s
    Maximum bit rate            : 2 805 kb/s
    Width                       : 1 920 pixels
    Height                      : 1 080 pixels
    Display aspect ratio        : 16:9
    Frame rate mode             : Constant
    Frame rate                  : 24.000 FPS
    Color space                 : YUV
    Chroma subsampling          : 4:2:0
    Bit depth                   : 8 bits
    Scan type                   : Progressive
    Bits/(Pixel*Frame)          : 0.038
    Stream size                 : 1.05 GiB (71%)
    Title                       : CinemaniaHDD
    Writing library             : x264 core 148 r2715 7e75228
    Encoding settings           : cabac=1 / ref=3 / deblock=1:0:0 / analyse=0x1:0x111 / me=umh / subme=10 / psy=1 / psy_rd=1.00:0.00 / mixed_ref=1 / me_range=24 / chroma_me=1 / trellis=2 / 8x8dct=0 / cqm=0 / deadzone=21,11 / fast_pskip=1 / chroma_qp_offset=-2 / threads=8 / lookahead_threads=1 / sliced_threads=0 / nr=0 / decimate=1 / interlaced=0 / bluray_compat=0 / stitchable=1 / constrained_intra=0 / bframes=2 / b_pyramid=0 / b_adapt=2 / b_bias=0 / direct=3 / weightb=1 / open_gop=0 / weightp=2 / keyint=250 / keyint_min=24 / scenecut=0 / intra_refresh=0 / rc_lookahead=48 / rc=2pass / mbtree=1 / bitrate=1870 / ratetol=1.0 / qcomp=0.50 / qpmin=6 / qpmax=51 / qpstep=4 / cplxblur=20.0 / qblur=0.5 / vbv_maxrate=2805 / vbv_bufsize=3740 / nal_hrd=vbr / filler=0 / ip_ratio=1.40 / aq=1:1.00
    Default                     : Yes
    Forced                      : No

    Audio #1
    ID                          : 2
    Format                      : AC-3
    Format/Info                 : Audio Coding 3
    Commercial name             : Dolby Digital
    Codec ID                    : A_AC3
    Duration                    : 1 h 21 min
    Bit rate mode               : Constant
    Bit rate                    : 384 kb/s
    Channel(s)                  : 6 channels
    Channel layout              : L R C LFE Ls Rs
    Sampling rate               : 48.0 kHz
    Frame rate                  : 31.250 FPS (1536 SPF)
    Bit depth                   : 16 bits
    Compression mode            : Lossy
    Stream size                 : 223 MiB (15%)
    Title                       : Español latino [CinemaniaHDD]
    Language                    : Spanish
    Service kind                : Complete Main
    Default                     : Yes
    Forced                      : No

    Audio #2
    ID                          : 3
    Format                      : AC-3
    Format/Info                 : Audio Coding 3
    Commercial name             : Dolby Digital
    Codec ID                    : A_AC3
    Duration                    : 1 h 21 min
    Bit rate mode               : Constant
    Bit rate                    : 384 kb/s
    Channel(s)                  : 6 channels
    Channel layout              : L R C LFE Ls Rs
    Sampling rate               : 48.0 kHz
    Frame rate                  : 31.250 FPS (1536 SPF)
    Bit depth                   : 16 bits
    Compression mode            : Lossy
    Stream size                 : 223 MiB (15%)
    Title                       : Inglés [CinemaniaHDD]
    Language                    : English
    Service kind                : Complete Main
    Default                     : No
    Forced                      : No

    Text #1
    ID                          : 4
    Format                      : UTF-8
    Codec ID                    : S_TEXT/UTF8
    Codec ID/Info               : UTF-8 Plain Text
    Duration                    : 1 h 20 min
    Bit rate                    : 0 b/s
    Count of elements           : 14
    Stream size                 : 272 Bytes (0%)
    Title                       : Forzados [CinemaniaHDD]
    Language                    : Spanish
    Default                     : Yes
    Forced                      : No

    Text #2
    ID                          : 5
    Format                      : UTF-8
    Codec ID                    : S_TEXT/UTF8
    Codec ID/Info               : UTF-8 Plain Text
    Duration                    : 1 h 20 min
    Bit rate                    : 23 b/s
    Count of elements           : 506
    Stream size                 : 13.9 KiB (0%)
    Title                       : Español latino [CinemaniaHDD]
    Language                    : Spanish
    Default                     : No
    Forced                      : No

     

  • Peso: 1.49 GiB

Sinopsis

Rosalie pertenece a un joven llamado Naoufel. Es su mano derecha. Pero un día, una sierra radial les separa. Rosalie escapa del refrigerador de la escuela de Medicina donde espera para ser diseccionada, determinada a reencontrarse con su cuerpo. Mientras está huyendo, esquivando las trampas y los peligros de la ciudad, Rosalie recuerda su vida con Naoufel. Cuando le encuentra, él esta inmerso en un estado terrible. Entonces ella decidirá echarle una “mano” cumpliendo su destino, que lleva por nombre Gabrielle.

Ficha técnica

Video trailer de la película

Enlaces de descarga

Rip de Bluray

Descargar Perdí mi cuerpo (2019) NF WEB-DL 1080p Latino




Aportes de DPeliculasHDmega la pass es:dpeliculashdmega.org Aportes de CinemaniaHD la pass es:cinemaniahdd.com
Guardado en : Animación , Drama , Netflix

Películas relacionadas

descargar Perdí mi cuerpo (2019) NF WEB-DL 1080p Latino WEBDL 1080p gratis, Perdí mi cuerpo (2019) NF WEB-DL 1080p Latino WEBDL mega 1 link, Perdí mi cuerpo (2019) NF WEB-DL 1080p Latino WEBDL pelicula completa, descargar Perdí mi cuerpo (2019) NF WEB-DL 1080p Latino WEBDL gratis en mega.

Perdí mi cuerpo (2019) NF WEB-DL 1080p Latino pelicula full hd, Perdí mi cuerpo (2019) NF WEB-DL 1080p Latino mega latino, Perdí mi cuerpo (2019) NF WEB-DL 1080p Latino 4k latino, Perdí mi cuerpo (2019) NF WEB-DL 1080p Latino pelicula completa, Perdí mi cuerpo (2019) NF WEB-DL 1080p Latino descargar gratis, descargar Perdí mi cuerpo (2019) NF WEB-DL 1080p Latino pelicula latino, Perdí mi cuerpo (2019) NF WEB-DL 1080p Latino 1 link mega, Perdí mi cuerpo (2019) NF WEB-DL 1080p Latino 1 link google drive, Perdí mi cuerpo (2019) NF WEB-DL 1080p Latino hd 1080p latino.
Comentarios 0