×

¿Problemas para descargar con Mozilla, EDGE? Deshabilita la opción "Abrir vinculos en una pestaña nueva" tal como lo muestra ésta imagen.

Percy Jackson y los dioses del Olimpo (2023) Temporada 1 WEB-DL 1080p Latino

165 vistas

Información de Percy Jackson y los dioses del Olimpo (2023) Temporada 1 WEB-DL 1080p Latino

Datos de la película

  • Calidad: WEBDL
  • Audio: Se especifica abajo de la Sinopsis
  • Subtitulos: Español Latino SRT- FORZADOS SRT
  • Resolución: 1920x1080p
  • Formato: MKV
  • Codec: H.264
  • Encoder: Melkor
  • Mediainfo: Clic para Mostrar Datos Ver
  • Percy Jackson and the Olympians S01E01 (2023) WebDL 1080p Latino.mkv
    Format                      : Matroska
    Format version              : Version 4
    File size                   : 1.72 GiB
    Duration                    : 37 min 21 s
    Overall bit rate mode       : Variable
    Overall bit rate            : 6 586 kb/s
    Movie name                  : CinemaniaHDD.Net
    Encoded date                : UTC 2023-12-20 04:10:42
    Writing application         : mkvmerge v56.1.0 ('My Friend') 64-bit
    Writing library             : libebml v1.4.2 + libmatroska v1.6.4
    Attachments                 : CINEMANIAHD.png
    Site                        : CinemaniaHDD.Net
    Uploader                    : Melkor

    Video
    ID                          : 1
    Format                      : AVC
    Format/Info                 : Advanced Video Codec
    Format profile              : High@L4
    Format settings             : CABAC / 4 Ref Frames
    Format settings, CABAC      : Yes
    Format settings, Reference  : 4 frames
    Codec ID                    : V_MPEG4/ISO/AVC
    Duration                    : 37 min 21 s
    Bit rate mode               : Variable
    Bit rate                    : 5 560 kb/s
    Maximum bit rate            : 12.7 Mb/s
    Width                       : 1 920 pixels
    Height                      : 1 080 pixels
    Display aspect ratio        : 16:9
    Frame rate mode             : Constant
    Frame rate                  : 24.000 FPS
    Color space                 : YUV
    Chroma subsampling          : 4:2:0
    Bit depth                   : 8 bits
    Scan type                   : Progressive
    Bits/(Pixel*Frame)          : 0.112
    Stream size                 : 1.45 GiB (84%)
    Title                       : WEB HD1080p [CinemaniaHDD]
    Language                    : English
    Default                     : Yes
    Forced                      : No
    Color range                 : Limited
    Color primaries             : BT.709
    Transfer characteristics    : BT.709
    Matrix coefficients         : BT.709

    Audio #1
    ID                          : 2
    Format                      : E-AC-3
    Format/Info                 : Enhanced AC-3
    Commercial name             : Dolby Digital Plus
    Codec ID                    : A_EAC3
    Duration                    : 37 min 21 s
    Bit rate mode               : Constant
    Bit rate                    : 256 kb/s
    Channel(s)                  : 6 channels
    Channel layout              : L R C LFE Ls Rs
    Sampling rate               : 48.0 kHz
    Frame rate                  : 31.250 FPS (1536 SPF)
    Compression mode            : Lossy
    Stream size                 : 68.4 MiB (4%)
    Title                       : Español Latino [CinemaniaHDD]
    Language                    : Spanish
    Service kind                : Complete Main
    Default                     : Yes
    Forced                      : No

    Audio #2
    ID                          : 3
    Format                      : E-AC-3 JOC
    Format/Info                 : Enhanced AC-3 with Joint Object Coding
    Commercial name             : Dolby Digital Plus with Dolby Atmos
    Format settings             : Dolby Surround EX
    Codec ID                    : A_EAC3
    Duration                    : 37 min 21 s
    Bit rate mode               : Constant
    Bit rate                    : 768 kb/s
    Channel(s)                  : 6 channels
    Channel layout              : L R C LFE Ls Rs
    Sampling rate               : 48.0 kHz
    Frame rate                  : 31.250 FPS (1536 SPF)
    Compression mode            : Lossy
    Stream size                 : 205 MiB (12%)
    Title                       : Ingles [CinemaniaHDD]
    Language                    : English
    Service kind                : Complete Main
    Default                     : No
    Forced                      : No
    Complexity index            : 16
    Number of dynamic objects   : 15
    Bed channel count           : 1 channel
    Bed channel configuration   : LFE

    Text #1
    ID                          : 4
    Format                      : UTF-8
    Codec ID                    : S_TEXT/UTF8
    Codec ID/Info               : UTF-8 Plain Text
    Duration                    : 36 min 21 s
    Bit rate                    : 0 b/s
    Count of elements           : 4
    Stream size                 : 130 Bytes (0%)
    Title                       : Forzados-SRT [CinemaniaHDD]
    Language                    : Spanish
    Default                     : Yes
    Forced                      : No

    Text #2
    ID                          : 5
    Format                      : UTF-8
    Codec ID                    : S_TEXT/UTF8
    Codec ID/Info               : UTF-8 Plain Text
    Duration                    : 37 min 3 s
    Bit rate                    : 59 b/s
    Count of elements           : 430
    Stream size                 : 16.2 KiB (0%)
    Title                       : Español-SRT [CinemaniaHDD]
    Language                    : Spanish
    Default                     : No
    Forced                      : No

    Text #3
    ID                          : 6
    Format                      : UTF-8
    Codec ID                    : S_TEXT/UTF8
    Codec ID/Info               : UTF-8 Plain Text
    Duration                    : 35 min 33 s
    Bit rate                    : 62 b/s
    Count of elements           : 435
    Stream size                 : 16.2 KiB (0%)
    Title                       : Ingles-SRT [CinemaniaHDD]
    Language                    : English
    Default                     : No
    Forced                      : No

    Menu
    00:33:51.708                : Credits

  • Peso: 1.8 GiB -- 13.44 GiB -- 8 Chapters

Sinopsis

Descargar Percy Jackson y los dioses del Olimpo (2023) Temporada 1 WEB-DL 1080p Latino. Percy Jackson está en una peligrosa misión. Evadiendo monstruos y superando dioses, debe cruzar el país para devolver el rayo maestro de Zeus y evitar una guerra. Con la ayuda de sus compañeros de misión, Annabeth y Grover, el viaje de Percy lo llevará a responderse cómo encajar en un mundo en el que se siente fuera de lugar y a descubrir cuál es su destino.

Audio Español Latino EAC3 5.1 D+ – Ingles EAC3 JOC 5.1 D+
8/8 Capítulos Agregados [Temporada Completa]

Ficha técnica

Video trailer de la película

Enlaces de descarga

Rip de Bluray

Descargar Percy Jackson y los dioses del Olimpo (2023) Temporada 1 WEB-DL 1080p Latino




Aportes de DPeliculasHDmega la pass es:dpeliculashdmega.org Aportes de CinemaniaHD la pass es:cinemaniahdd.com Aportes recientes:cinemaniahdd.net

Películas relacionadas

  • iZombie (2016) Temporada 02 Full HD 1080p Latino

    iZombie (2016) Temporada 02 Full HD 1080p Latino

    2015
    iZombie (2016) Temporada 02 Full HD 1080p Latino

    0h 42m 2015

    Descargar iZombie (2016) Temporada 02 Full HD 1080p Latino. Gira en torno a una estudiante de medicina...

    Director: Rob Thomas

    Género: Crimen

    Actores: Rose McIver

  • iZombie (2016) Temporada 02 REMUX 1080p Latino

    iZombie (2016) Temporada 02 REMUX 1080p Latino

    2015
    iZombie (2016) Temporada 02 REMUX 1080p Latino

    0h 42m 2015

    Descargar iZombie (2016) Temporada 02 REMUX 1080p Latino. Gira en torno a una estudiante de medicina...

    Director: Rob Thomas

    Género: Crimen

    Actores: Rose McIver

  • iZombie (2015) Temporada 01 Full HD 1080p Latino

    iZombie (2015) Temporada 01 Full HD 1080p Latino

    2015
    iZombie (2015) Temporada 01 Full HD 1080p Latino

    0h 42m 2015

    Descargar iZombie (2015) Temporada 01 Full HD 1080p Latino. Gira en torno a una estudiante de medicina...

    Director: Rob Thomas

    Género: Crimen

    Actores: Rose McIver

  • iZombie (2015) Temporada 01 REMUX 1080p Latino

    iZombie (2015) Temporada 01 REMUX 1080p Latino

    2015
    iZombie (2015) Temporada 01 REMUX 1080p Latino

    0h 42m 2015

    Descargar iZombie (2015) Temporada 01 REMUX 1080p Latino. Gira en torno a una estudiante de medicina...

    Director: Rob Thomas

    Género: Crimen

    Actores: Rose McIver

descargar Percy Jackson y los dioses del Olimpo (2023) Temporada 1 WEB-DL 1080p Latino WEBDL 1080p gratis, Percy Jackson y los dioses del Olimpo (2023) Temporada 1 WEB-DL 1080p Latino WEBDL mega 1 link, Percy Jackson y los dioses del Olimpo (2023) Temporada 1 WEB-DL 1080p Latino WEBDL serie completa, descargar Percy Jackson y los dioses del Olimpo (2023) Temporada 1 WEB-DL 1080p Latino WEBDL gratis en mega.

Percy Jackson y los dioses del Olimpo (2023) Temporada 1 WEB-DL 1080p Latino pelicula full hd, Percy Jackson y los dioses del Olimpo (2023) Temporada 1 WEB-DL 1080p Latino mega latino, Percy Jackson y los dioses del Olimpo (2023) Temporada 1 WEB-DL 1080p Latino 4k latino, Percy Jackson y los dioses del Olimpo (2023) Temporada 1 WEB-DL 1080p Latino pelicula completa, Percy Jackson y los dioses del Olimpo (2023) Temporada 1 WEB-DL 1080p Latino descargar gratis, descargar Percy Jackson y los dioses del Olimpo (2023) Temporada 1 WEB-DL 1080p Latino pelicula latino, Percy Jackson y los dioses del Olimpo (2023) Temporada 1 WEB-DL 1080p Latino 1 link mega, Percy Jackson y los dioses del Olimpo (2023) Temporada 1 WEB-DL 1080p Latino 1 link google drive, Percy Jackson y los dioses del Olimpo (2023) Temporada 1 WEB-DL 1080p Latino hd 1080p latino.
Comentarios 0