×

¿Problemas para descargar con Mozilla, EDGE? Deshabilita la opción "Abrir vinculos en una pestaña nueva" tal como lo muestra ésta imagen.

Percy Jackson y el ladrón del rayo (2010) REMUX 1080p Latino

323 vistas

Información de Percy Jackson y el ladrón del rayo (2010) REMUX 1080p Latino

Datos de la película

  • Calidad: Full 1080p
  • Audio: Español Latino AC3 5.1 BLURAY - Ingles DTS 5.1 BLURAY
  • Subtitulos: Español Latino PGS - Ingles PGS
  • Resolución: 1920x1080p
  • Formato: MKV
  • Codec: H.264
  • Encoder: CinefiloCool
  • Mediainfo: Clic para Mostrar Datos Ver
  • Percy Jackson Y El Ladron Del Rayo (2010) REMUX 1080p Latino.mkv
    Format                      : Matroska
    Format version              : Version 4
    File size                   : 29.8 GiB
    Duration                    : 1 h 58 min
    Overall bit rate mode       : Variable
    Overall bit rate            : 35.9 Mb/s
    Movie name                  : Percy Jackson & the Lightning Thief (2010) CinemaniaHDD.Net
    Encoded date                : UTC 2020-06-29 21:00:22
    Writing application         : mkvmerge v46.0.0 ('No Deeper Escape') 64-bit
    Writing library             : libebml v1.3.10 + libmatroska v1.5.2
    Attachments                 : CINEMANIAHD.png

    Video
    ID                          : 1
    Format                      : AVC
    Format/Info                 : Advanced Video Codec
    Format profile              : High@L4.1
    Format settings             : CABAC / 4 Ref Frames
    Format settings, CABAC      : Yes
    Format settings, Reference  : 4 frames
    Codec ID                    : V_MPEG4/ISO/AVC
    Duration                    : 1 h 58 min
    Bit rate mode               : Variable
    Bit rate                    : 31.6 Mb/s
    Maximum bit rate            : 35.7 Mb/s
    Width                       : 1 920 pixels
    Height                      : 1 080 pixels
    Display aspect ratio        : 16:9
    Frame rate mode             : Constant
    Frame rate                  : 23.976 (24000/1001) FPS
    Color space                 : YUV
    Chroma subsampling          : 4:2:0
    Bit depth                   : 8 bits
    Scan type                   : Progressive
    Bits/(Pixel*Frame)          : 0.635
    Stream size                 : 26.1 GiB (88%)
    Title                       : REMUX 1080p [CinemaniaHDD]
    Language                    : English
    Default                     : Yes
    Forced                      : No
    Color range                 : Limited
    Color primaries             : BT.709
    Transfer characteristics    : BT.709
    Matrix coefficients         : BT.709

    Audio #1
    ID                          : 2
    Format                      : AC-3
    Format/Info                 : Audio Coding 3
    Commercial name             : Dolby Digital
    Codec ID                    : A_AC3
    Duration                    : 1 h 58 min
    Bit rate mode               : Constant
    Bit rate                    : 448 kb/s
    Channel(s)                  : 6 channels
    Channel layout              : L R C LFE Ls Rs
    Sampling rate               : 48.0 kHz
    Frame rate                  : 31.250 FPS (1536 SPF)
    Compression mode            : Lossy
    Stream size                 : 380 MiB (1%)
    Title                       : Español Latino [CinemaniaHDD]
    Language                    : Spanish
    Service kind                : Complete Main
    Default                     : Yes
    Forced                      : No

    Audio #2
    ID                          : 3
    Format                      : DTS XLL
    Format/Info                 : Digital Theater Systems
    Commercial name             : DTS-HD Master Audio
    Codec ID                    : A_DTS
    Duration                    : 1 h 58 min
    Bit rate mode               : Variable
    Bit rate                    : 3 897 kb/s
    Channel(s)                  : 6 channels
    Channel layout              : C L R Ls Rs LFE
    Sampling rate               : 48.0 kHz
    Frame rate                  : 93.750 FPS (512 SPF)
    Bit depth                   : 24 bits
    Compression mode            : Lossless
    Stream size                 : 3.23 GiB (11%)
    Title                       : Ingles [CinemaniaHDD]
    Language                    : English
    Default                     : No
    Forced                      : No

    Text #1
    ID                          : 4
    Format                      : PGS
    Muxing mode                 : zlib
    Codec ID                    : S_HDMV/PGS
    Codec ID/Info               : Picture based subtitle format used on BDs/HD-DVDs
    Duration                    : 1 h 55 min
    Bit rate                    : 27.5 kb/s
    Count of elements           : 2350
    Stream size                 : 22.8 MiB (0%)
    Title                       : Español-PGS [CinemaniaHDD]
    Language                    : Spanish
    Default                     : No
    Forced                      : No

    Text #2
    ID                          : 5
    Format                      : PGS
    Muxing mode                 : zlib
    Codec ID                    : S_HDMV/PGS
    Codec ID/Info               : Picture based subtitle format used on BDs/HD-DVDs
    Duration                    : 1 h 57 min
    Bit rate                    : 35.4 kb/s
    Count of elements           : 3174
    Stream size                 : 29.8 MiB (0%)
    Title                       : Ingles-PGS [CinemaniaHDD]
    Language                    : English
    Default                     : No
    Forced                      : No

    Text #3
    ID                          : 6
    Format                      : UTF-8
    Codec ID                    : S_TEXT/UTF8
    Codec ID/Info               : UTF-8 Plain Text
    Duration                    : 1 h 49 min
    Bit rate                    : 0 b/s
    Count of elements           : 10
    Stream size                 : 302 Bytes (0%)
    Title                       : Forzados-SRT [CinemaniaHDD]
    Language                    : Spanish
    Default                     : Yes
    Forced                      : No

    Text #4
    ID                          : 7
    Format                      : UTF-8
    Codec ID                    : S_TEXT/UTF8
    Codec ID/Info               : UTF-8 Plain Text
    Duration                    : 1 h 51 min
    Bit rate                    : 45 b/s
    Count of elements           : 1176
    Stream size                 : 37.4 KiB (0%)
    Title                       : Español-SRT [CinemaniaHDD]
    Language                    : Spanish
    Default                     : No
    Forced                      : No

    Menu
    00:00:00.000                : en:The Fight of His Life
    00:04:39.404                : en:Seven Minutes/Main Titles
    00:07:28.448                : en:Show Some Respect
    00:09:47.295                : en:Half God, Half Human
    00:14:56.020                : en:Your Father Loves You
    00:20:28.894                : en:Camp Half Blood
    00:24:39.769                : en:The Surprises Mount Up
    00:31:09.993                : en:Let the Battle Begin
    00:34:25.938                : en:Go To the Water
    00:38:50.578                : en:Straight From Hell
    00:41:23.147                : en:An Actual Quest
    00:43:15.384                : en:Guide to the Underworld
    00:46:49.556                : en:Auntie Em's Garden Emporium
    00:50:05.836                : en:Don't Look!
    00:56:49.614                : en:Forbidden
    01:01:35.400                : en:Annabeth's Mom
    01:04:49.260                : en:Twice as Bad
    01:10:20.591                : en:Going to Vegas!
    01:13:32.783                : en:Don't Eat the Flower
    01:20:58.353                : en:Climb Aboard
    01:25:16.861                : en:Give Me the Bolt
    01:29:38.915                : en:Only Three Pearls
    01:33:42.742                : en:To Bring Down Olympus
    01:38:35.701                : en:Son of Poseidon
    01:41:45.849                : en:Time Has Run Out
    01:44:47.114                : en:In Your Thoughts and Dreams
    01:47:43.582                : en:Welcome Home
    01:52:12.016                : en:End Titles/(Do Not Open)

  • Peso: 29.8 GiB

Sinopsis

Descargar Percy Jackson y el ladrón del rayo (2010) REMUX 1080p Latino. Adaptacion de la  novela del Autor Estadounidense Rick Riordan; Percy Jackson es un auténtico imán para los desastres y tiene problemas en el instituto -pero ése es el menor de sus retos-. Estamos en el siglo XXI pero los dioses del Olimpo parecen haberse escapado de las páginas del libro de texto de Percy sobre mitología griega para colarse en su vida. Percy se ha enterado de que su verdadero padre es Poseidón, dios del mar, lo que significa que Percy es un semidiós -mitad ser humano, mitad dios-. Al mismo tiempo, Zeus, el rey de todos los dioses, ha acusado a Percy de robarle su rayo… la versión original de las armas de destrucción masiva…

Ficha técnica

Video trailer de la película

Enlaces de descarga

Rip de Bluray

Descargar Percy Jackson y el ladrón del rayo (2010) REMUX 1080p Latino




Aportes de DPeliculasHDmega la pass es:dpeliculashdmega.org Aportes de CinemaniaHD la pass es:cinemaniahdd.com
Guardado en : Aventura , Familia , Fantasía , Remux

Películas relacionadas

descargar Percy Jackson y el ladrón del rayo (2010) REMUX 1080p Latino Full 1080p 1080p gratis, Percy Jackson y el ladrón del rayo (2010) REMUX 1080p Latino Full 1080p mega 1 link, Percy Jackson y el ladrón del rayo (2010) REMUX 1080p Latino Full 1080p pelicula completa, descargar Percy Jackson y el ladrón del rayo (2010) REMUX 1080p Latino Full 1080p gratis en mega.

Percy Jackson y el ladrón del rayo (2010) REMUX 1080p Latino pelicula full hd, Percy Jackson y el ladrón del rayo (2010) REMUX 1080p Latino mega latino, Percy Jackson y el ladrón del rayo (2010) REMUX 1080p Latino 4k latino, Percy Jackson y el ladrón del rayo (2010) REMUX 1080p Latino pelicula completa, Percy Jackson y el ladrón del rayo (2010) REMUX 1080p Latino descargar gratis, descargar Percy Jackson y el ladrón del rayo (2010) REMUX 1080p Latino pelicula latino, Percy Jackson y el ladrón del rayo (2010) REMUX 1080p Latino 1 link mega, Percy Jackson y el ladrón del rayo (2010) REMUX 1080p Latino 1 link google drive, Percy Jackson y el ladrón del rayo (2010) REMUX 1080p Latino hd 1080p latino.
Comentarios 1
  • ocpgaiden - 02 julio, 2020

    Gracias por Percy Jackson y el ladrón del rayo, saludos