Percy Jackson y el ladrón del rayo (2010) 1080p Latino

65 vistas
1 estrella2 estrellas3 estrellas4 estrellas5 estrellas (Ninguna valoración todavía)
Cargando...

Información de Percy Jackson y el ladrón del rayo (2010) 1080p Latino

Datos de la película

  • Calidad: 1080p
  • Audio: Español Latino AC3 5.1 BLURAY - Ingles AC3 5.1 BLURAY
  • Subtitulos: Español Latino SRT - Ingles SRT
  • Resolución: 1920x816p
  • Formato: MKV
  • Codec: H.264
  • Encoder: CinefiloCool
  • Mediainfo: Clic para Mostrar Datos Ver
  • Percy Jackson Y El Ladron Del Rayo (2010) 1080p Latino.mkv
    Format                      : Matroska
    Format version              : Version 4
    File size                   : 3.64 GiB
    Duration                    : 1 h 58 min
    Overall bit rate            : 4 398 kb/s
    Movie name                  : Percy Jackson & the Lightning Thief (2010) CinemaniaHDD.Net
    Encoded date                : UTC 2020-06-30 06:42:35
    Writing application         : mkvmerge v46.0.0 ('No Deeper Escape') 64-bit
    Writing library             : libebml v1.3.10 + libmatroska v1.5.2
    Attachments                 : CINEMANIAHD.png

    Video
    ID                          : 1
    Format                      : AVC
    Format/Info                 : Advanced Video Codec
    Format profile              : High@L4.1
    Format settings             : CABAC / 5 Ref Frames
    Format settings, CABAC      : Yes
    Format settings, Reference  : 5 frames
    Codec ID                    : V_MPEG4/ISO/AVC
    Duration                    : 1 h 58 min
    Bit rate                    : 3 500 kb/s
    Width                       : 1 920 pixels
    Height                      : 816 pixels
    Display aspect ratio        : 2.35:1
    Frame rate mode             : Constant
    Frame rate                  : 23.976 (24000/1001) FPS
    Color space                 : YUV
    Chroma subsampling          : 4:2:0
    Bit depth                   : 8 bits
    Scan type                   : Progressive
    Bits/(Pixel*Frame)          : 0.093
    Stream size                 : 2.90 GiB (80%)
    Title                       : HD1080p [CinemaniaHDD]
    Writing library             : x264 core 157 r2935 545de2f
    Encoding settings           : cabac=1 / ref=5 / deblock=1:-1:-1 / analyse=0x3:0x133 / me=umh / subme=9 / psy=1 / psy_rd=1.00:0.15 / mixed_ref=1 / me_range=16 / chroma_me=1 / trellis=2 / 8x8dct=1 / cqm=0 / deadzone=21,11 / fast_pskip=1 / chroma_qp_offset=-3 / threads=24 / lookahead_threads=2 / sliced_threads=0 / nr=0 / decimate=1 / interlaced=0 / bluray_compat=0 / constrained_intra=0 / bframes=3 / b_pyramid=2 / b_adapt=2 / b_bias=0 / direct=3 / weightb=1 / open_gop=0 / weightp=2 / keyint=240 / keyint_min=24 / scenecut=40 / intra_refresh=0 / rc_lookahead=60 / rc=2pass / mbtree=1 / bitrate=3500 / ratetol=1.0 / qcomp=0.60 / qpmin=0 / qpmax=69 / qpstep=4 / cplxblur=20.0 / qblur=0.5 / vbv_maxrate=62500 / vbv_bufsize=78125 / nal_hrd=none / filler=0 / ip_ratio=1.40 / aq=1:1.00
    Default                     : Yes
    Forced                      : Yes
    Color range                 : Limited
    Color primaries             : BT.709
    Transfer characteristics    : BT.709
    Matrix coefficients         : BT.709

    Audio #1
    ID                          : 2
    Format                      : AC-3
    Format/Info                 : Audio Coding 3
    Commercial name             : Dolby Digital
    Codec ID                    : A_AC3
    Duration                    : 1 h 58 min
    Bit rate mode               : Constant
    Bit rate                    : 448 kb/s
    Channel(s)                  : 6 channels
    Channel layout              : L R C LFE Ls Rs
    Sampling rate               : 48.0 kHz
    Frame rate                  : 31.250 FPS (1536 SPF)
    Compression mode            : Lossy
    Delay relative to video     : -5 ms
    Stream size                 : 380 MiB (10%)
    Title                       : Español Latino [CinemaniaHDD]
    Language                    : Spanish
    Service kind                : Complete Main
    Default                     : Yes
    Forced                      : Yes

    Audio #2
    ID                          : 3
    Format                      : AC-3
    Format/Info                 : Audio Coding 3
    Commercial name             : Dolby Digital
    Codec ID                    : A_AC3
    Duration                    : 1 h 58 min
    Bit rate mode               : Constant
    Bit rate                    : 448 kb/s
    Channel(s)                  : 6 channels
    Channel layout              : L R C LFE Ls Rs
    Sampling rate               : 48.0 kHz
    Frame rate                  : 31.250 FPS (1536 SPF)
    Compression mode            : Lossy
    Delay relative to video     : -5 ms
    Stream size                 : 380 MiB (10%)
    Title                       : Ingles [CinemaniaHDD]
    Language                    : English
    Service kind                : Complete Main
    Default                     : No
    Forced                      : No

    Text #1
    ID                          : 4
    Format                      : UTF-8
    Codec ID                    : S_TEXT/UTF8
    Codec ID/Info               : UTF-8 Plain Text
    Duration                    : 1 h 49 min
    Bit rate                    : 0 b/s
    Count of elements           : 10
    Stream size                 : 302 Bytes (0%)
    Title                       : Forzados-SRT [CinemaniaHDD]
    Language                    : Spanish
    Default                     : Yes
    Forced                      : Yes

    Text #2
    ID                          : 5
    Format                      : UTF-8
    Codec ID                    : S_TEXT/UTF8
    Codec ID/Info               : UTF-8 Plain Text
    Duration                    : 1 h 51 min
    Bit rate                    : 45 b/s
    Count of elements           : 1176
    Stream size                 : 37.4 KiB (0%)
    Title                       : Español-SRT [CinemaniaHDD]
    Language                    : Spanish
    Default                     : No
    Forced                      : No

    Text #3
    ID                          : 6
    Format                      : UTF-8
    Codec ID                    : S_TEXT/UTF8
    Codec ID/Info               : UTF-8 Plain Text
    Duration                    : 1 h 51 min
    Bit rate                    : 49 b/s
    Count of elements           : 1397
    Stream size                 : 40.6 KiB (0%)
    Title                       : Ingles-SRT [CinemaniaHDD]
    Language                    : English
    Default                     : No
    Forced                      : No

    Menu
    00:00:00.000                : en:The Fight of His Life
    00:04:39.404                : en:Seven Minutes/Main Titles
    00:07:28.448                : en:Show Some Respect
    00:09:47.295                : en:Half God, Half Human
    00:14:56.020                : en:Your Father Loves You
    00:20:28.894                : en:Camp Half Blood
    00:24:39.769                : en:The Surprises Mount Up
    00:31:09.993                : en:Let the Battle Begin
    00:34:25.938                : en:Go To the Water
    00:38:50.578                : en:Straight From Hell
    00:41:23.147                : en:An Actual Quest
    00:43:15.384                : en:Guide to the Underworld
    00:46:49.556                : en:Auntie Em's Garden Emporium
    00:50:05.836                : en:Don't Look!
    00:56:49.614                : en:Forbidden
    01:01:35.400                : en:Annabeth's Mom
    01:04:49.260                : en:Twice as Bad
    01:10:20.591                : en:Going to Vegas!
    01:13:32.783                : en:Don't Eat the Flower
    01:20:58.353                : en:Climb Aboard
    01:25:16.861                : en:Give Me the Bolt
    01:29:38.915                : en:Only Three Pearls
    01:33:42.742                : en:To Bring Down Olympus
    01:38:35.701                : en:Son of Poseidon
    01:41:45.849                : en:Time Has Run Out
    01:44:47.114                : en:In Your Thoughts and Dreams
    01:47:43.582                : en:Welcome Home
    01:52:12.016                : en:End Titles/(Do Not Open)

  • Peso: 3.64 GiB

Sinopsis

Descargar Percy Jackson y el ladrón del rayo (2010) 1080p Latino. Adaptacion de la  novela del Autor Estadounidense Rick Riordan; Percy Jackson es un auténtico imán para los desastres y tiene problemas en el instituto -pero ése es el menor de sus retos-. Estamos en el siglo XXI pero los dioses del Olimpo parecen haberse escapado de las páginas del libro de texto de Percy sobre mitología griega para colarse en su vida. Percy se ha enterado de que su verdadero padre es Poseidón, dios del mar, lo que significa que Percy es un semidiós -mitad ser humano, mitad dios-. Al mismo tiempo, Zeus, el rey de todos los dioses, ha acusado a Percy de robarle su rayo… la versión original de las armas de destrucción masiva…

Ficha técnica

Video trailer de la película

Enlaces de descarga

Rip de Bluray

Descargar Percy Jackson y el ladrón del rayo (2010) 1080p Latino




Aportes de DPeliculasHDmega la pass es:dpeliculashdmega.org Aportes de CinemaniaHD la pass es:cinemaniahdd.com
Guardado en : Aventura , Familia , Fantasía , HD 1080p

Películas relacionadas

  • Rogue (2020) HD 1080p Latino

    Rogue (2020) HD 1080p Latino

    2020
    Rogue (2020) HD 1080p Latino

    0.0 1h 46m 2020

    Descargar Rogue (2020) HD 1080p Latino. O'Hara es una mercenaria que dirige un escuadrón de soldados...

    Director: M.J. Bassett

    Género: Acción

    Actores: Tamer Burjaq

  • Transcendence: Identidad Virtual (2014) 1080p Latino

    Transcendence: Identidad Virtual (2014) 1080p Latino

    2014
    Transcendence: Identidad Virtual (2014) 1080p Latino

    0.0 1h 59m 2014

    Descargar Transcendence: Identidad Virtual (2014) 1080p Latino. El Dr. Will Caster (Johnny Depp), prestigioso...

    Director: Wally Pfister

    Género: Ciencia ficción

    Actores: Xander Berkeley

  • Hermosas Criaturas (2013) 1080p Latino

    Hermosas Criaturas (2013) 1080p Latino

    2013
    Hermosas Criaturas (2013) 1080p Latino

    0.0 2h 4m 2013

    Descargar Hermosas Criaturas (2013) 1080p Latino. El hastío domina la vida de Ethan Wate, un chico que...

    Director: Richard LaGravenese

    Género: Drama

    Actores: Zoey Deutch

  • Hermosas Criaturas (2013) Full HD 1080p Latino

    Hermosas Criaturas (2013) Full HD 1080p Latino

    2013
    Hermosas Criaturas (2013) Full HD 1080p Latino

    0.0 2h 4m 2013

    Descargar Hermosas Criaturas (2013) Full HD 1080p Latino. El hastío domina la vida de Ethan Wate, un...

    Director: Richard LaGravenese

    Género: Drama

    Actores: Zoey Deutch

  • Hermosas Criaturas (2013) REMUX 1080p Latino

    Hermosas Criaturas (2013) REMUX 1080p Latino

    2013
    Hermosas Criaturas (2013) REMUX 1080p Latino

    0.0 2h 4m 2013

    Descargar Hermosas Criaturas (2013) REMUX 1080p Latino. El hastío domina la vida de Ethan Wate, un chico...

    Director: Richard LaGravenese

    Género: Drama

    Actores: Zoey Deutch

Comentarios 0