Percy Jackson y El Mar De Los Monstruos (2013) REMUX 1080p Latino

223 vistas
1 estrella2 estrellas3 estrellas4 estrellas5 estrellas (2 votos, promedio: 5,00 de 5)
Cargando...

Información de Percy Jackson y El Mar De Los Monstruos (2013) REMUX 1080p Latino

Datos de la película

  • Calidad: Full 1080p
  • Audio: Español Latino AC3 5.1 BLURAY - Ingles DTS-HD Master 7.1 BLURAY
  • Subtitulos: Español Latino PGS - Ingles PGS
  • Resolución: 1920x1080p
  • Formato: MKV
  • Codec: H.264
  • Encoder: CinefiloCool
  • Mediainfo: Clic para Mostrar Datos Ver
  • Percy Jackson Y El Mar De Los Monstruos (2013) REMUX 1080p Latino.mkv
    Format                      : Matroska
    Format version              : Version 4
    File size                   : 25.9 GiB
    Duration                    : 1 h 46 min
    Overall bit rate mode       : Variable
    Overall bit rate            : 35.0 Mb/s
    Movie name                  : Percy Jackson & Sea Of Monsters (2013) CinemaniaHDD.Net
    Encoded date                : UTC 2020-06-30 06:23:56
    Writing application         : mkvmerge v46.0.0 ('No Deeper Escape') 64-bit
    Writing library             : libebml v1.3.10 + libmatroska v1.5.2
    Attachments                 : CINEMANIAHD.png

    Video
    ID                          : 1
    Format                      : AVC
    Format/Info                 : Advanced Video Codec
    Format profile              : High@L4.1
    Format settings             : CABAC / 4 Ref Frames
    Format settings, CABAC      : Yes
    Format settings, Reference  : 4 frames
    Codec ID                    : V_MPEG4/ISO/AVC
    Duration                    : 1 h 46 min
    Bit rate mode               : Variable
    Bit rate                    : 28.9 Mb/s
    Maximum bit rate            : 31.4 Mb/s
    Width                       : 1 920 pixels
    Height                      : 1 080 pixels
    Display aspect ratio        : 16:9
    Frame rate mode             : Constant
    Frame rate                  : 23.976 (24000/1001) FPS
    Color space                 : YUV
    Chroma subsampling          : 4:2:0
    Bit depth                   : 8 bits
    Scan type                   : Progressive
    Bits/(Pixel*Frame)          : 0.582
    Stream size                 : 21.4 GiB (83%)
    Title                       : REMUX 1080p [CinemaniaHDD]
    Language                    : English
    Default                     : Yes
    Forced                      : No

    Audio #1
    ID                          : 2
    Format                      : AC-3
    Format/Info                 : Audio Coding 3
    Commercial name             : Dolby Digital
    Codec ID                    : A_AC3
    Duration                    : 1 h 46 min
    Bit rate mode               : Constant
    Bit rate                    : 448 kb/s
    Channel(s)                  : 6 channels
    Channel layout              : L R C LFE Ls Rs
    Sampling rate               : 48.0 kHz
    Frame rate                  : 31.250 FPS (1536 SPF)
    Compression mode            : Lossy
    Stream size                 : 340 MiB (1%)
    Title                       : Español Latino [CinemaniaHDD]
    Language                    : Spanish
    Service kind                : Complete Main
    Default                     : Yes
    Forced                      : No

    Audio #2
    ID                          : 3
    Format                      : DTS ES XLL
    Format/Info                 : Digital Theater Systems
    Commercial name             : DTS-HD Master Audio
    Codec ID                    : A_DTS
    Duration                    : 1 h 46 min
    Bit rate mode               : Variable
    Bit rate                    : 5 557 kb/s
    Channel(s)                  : 8 channels
    Channel layout              : C L R Ls Rs LFE Lb Rb
    Sampling rate               : 48.0 kHz
    Frame rate                  : 93.750 FPS (512 SPF)
    Bit depth                   : 24 bits
    Compression mode            : Lossless
    Stream size                 : 4.12 GiB (16%)
    Title                       : Ingles [CinemaniaHDD]
    Language                    : English
    Default                     : No
    Forced                      : No

    Text #1
    ID                          : 4
    Format                      : PGS
    Muxing mode                 : zlib
    Codec ID                    : S_HDMV/PGS
    Codec ID/Info               : Picture based subtitle format used on BDs/HD-DVDs
    Duration                    : 1 h 44 min
    Bit rate                    : 30.0 kb/s
    Count of elements           : 2372
    Stream size                 : 22.6 MiB (0%)
    Title                       : Español-PGS [CinemaniaHDD]
    Language                    : Spanish
    Default                     : No
    Forced                      : No

    Text #2
    ID                          : 5
    Format                      : PGS
    Muxing mode                 : zlib
    Codec ID                    : S_HDMV/PGS
    Codec ID/Info               : Picture based subtitle format used on BDs/HD-DVDs
    Duration                    : 1 h 36 min
    Bit rate                    : 38.6 kb/s
    Count of elements           : 2814
    Stream size                 : 26.7 MiB (0%)
    Title                       : Ingles-PGS [CinemaniaHDD]
    Language                    : English
    Default                     : No
    Forced                      : No

    Text #3
    ID                          : 6
    Format                      : UTF-8
    Codec ID                    : S_TEXT/UTF8
    Codec ID/Info               : UTF-8 Plain Text
    Duration                    : 1 h 36 min
    Bit rate                    : 0 b/s
    Count of elements           : 8
    Stream size                 : 237 Bytes (0%)
    Title                       : Forzados-SRT [CinemaniaHDD]
    Language                    : Spanish
    Default                     : Yes
    Forced                      : No

    Text #4
    ID                          : 7
    Format                      : UTF-8
    Codec ID                    : S_TEXT/UTF8
    Codec ID/Info               : UTF-8 Plain Text
    Duration                    : 1 h 36 min
    Bit rate                    : 53 b/s
    Count of elements           : 1189
    Stream size                 : 37.6 KiB (0%)
    Title                       : Español-SRT [CinemaniaHDD]
    Language                    : Spanish
    Default                     : No
    Forced                      : No

    Menu
    00:00:00.000                : en:00:00:00.000
    00:04:05.454                : en:00:04:05.454
    00:06:43.069                : en:00:06:43.069
    00:09:31.696                : en:00:09:31.696
    00:13:53.124                : en:00:13:53.124
    00:19:17.156                : en:00:19:17.156
    00:20:48.038                : en:00:20:48.038
    00:22:10.496                : en:00:22:10.496
    00:25:30.529                : en:00:25:30.529
    00:28:22.826                : en:00:28:22.826
    00:30:27.534                : en:00:30:27.534
    00:33:19.998                : en:00:33:19.998
    00:37:01.261                : en:00:37:01.261
    00:39:49.596                : en:00:39:49.596
    00:45:16.380                : en:00:45:16.380
    00:48:50.177                : en:00:48:50.177
    00:52:42.951                : en:00:52:42.951
    00:56:35.100                : en:00:56:35.100
    01:00:19.866                : en:01:00:19.866
    01:03:35.895                : en:01:03:35.895
    01:05:40.687                : en:01:05:40.687
    01:10:41.696                : en:01:10:41.696
    01:12:32.181                : en:01:12:32.181
    01:16:52.817                : en:01:16:52.817
    01:19:39.441                : en:01:19:39.441
    01:23:01.768                : en:01:23:01.768
    01:25:45.807                : en:01:25:45.807
    01:29:54.264                : en:01:29:54.264
    01:32:47.312                : en:01:32:47.312
    01:34:25.243                : en:01:34:25.243
    01:36:07.971                : en:01:36:07.971
    01:37:39.187                : en:01:37:39.187

  • Peso: 25.9 GiB

Sinopsis

Descargar Percy Jackson y El Mar De Los Monstruos (2013) REMUX 1080p Latino. Percy Jackson no se siente un héroe. El semidiós hijo de Poseidón –el dios griego del mar– pudo salvar el mundo en una ocasión, pero Percy está empezando a pensar que pudo ser fruto de la casualidad. Y ahora la pregunta es: ¿ha resultado ser un fiasco? Ahora que Percy ha descubierto que tiene un hermanastro que es un monstruo, se pregunta si ser el hijo de Poseidón es una bendición o, más bien, una maldición…

Ficha técnica

Video trailer de la película

Enlaces de descarga

Rip de Bluray

Descargar Percy Jackson y El Mar De Los Monstruos (2013) REMUX 1080p Latino




Aportes de DPeliculasHDmega la pass es:dpeliculashdmega.org Aportes de CinemaniaHD la pass es:cinemaniahdd.com
Guardado en : Aventura , Familia , Fantasía , Remux

Películas relacionadas

  • Luca (2021) HD 1080p Latino

    Luca (2021) HD 1080p Latino

    2021
    Luca (2021) HD 1080p Latino

    0.0 1h 41m 2021

    Descargar Luca (2021) HD 1080p Latino. Ambientada en un precioso pueblo costero de la Riviera italiana,...

    Director: Rayna Helgens

    Género: Animación

    Actores: Saverio Raimondo

  • Luca (2021) REMUX 1080p Latino

    Luca (2021) REMUX 1080p Latino

    2021
    Luca (2021) REMUX 1080p Latino

    0.0 1h 41m 2021

    Descargar Luca (2021) REMUX 1080p Latino. Ambientada en un precioso pueblo costero de la Riviera italiana,...

    Director: Rayna Helgens

    Género: Animación

    Actores: Saverio Raimondo

  • Antonia: Una sinfonía (2018) REMUX 1080p Latino

    Antonia: Una sinfonía (2018) REMUX 1080p Latino

    2018
    Antonia: Una sinfonía (2018) REMUX 1080p Latino

    0.0 2h 17m 2018

    Descargar Antonia: Una sinfonía (2018) REMUX 1080p Latino. Película basada en la vida de Antonia Brico,...

    Director: Maria Peters

    Género: Drama

    Actores: Tim Ahern

  • Cosa De Hombres (2003) REMUX 1080p Latino

    Cosa De Hombres (2003) REMUX 1080p Latino

    2003
    Cosa De Hombres (2003) REMUX 1080p Latino

    0.0 1h 41m 2003

    Descargar Cosa De Hombres (2003) REMUX 1080p Latino. Paul -Jason Lee- está a punto de casarse con Karen...

    Director: Chris Koch

    Género: Comedia

    Actores: Zahf Paroo

  • Howard the Duck (1986) REMUX 1080p Latino – CMHDD

    Howard the Duck (1986) REMUX 1080p Latino – CMHDD

    1986
    Howard the Duck (1986) REMUX 1080p Latino – CMHDD

    0.0 1h 51m 1986

    Desde un lejano planeta, y debido a un error de un laboratorio espacial, llega a La Tierra teletransportado...

    Director: Willard Huyck

    Género: Ciencia ficción

    Actores: Wood Moy

Percy Jackson y El Mar De Los Monstruos (2013) REMUX 1080p Latino pelicula full hd, Percy Jackson y El Mar De Los Monstruos (2013) REMUX 1080p Latino mega latino, Percy Jackson y El Mar De Los Monstruos (2013) REMUX 1080p Latino 4k latino, Percy Jackson y El Mar De Los Monstruos (2013) REMUX 1080p Latino pelicula completa, Percy Jackson y El Mar De Los Monstruos (2013) REMUX 1080p Latino descargar gratis, descargar Percy Jackson y El Mar De Los Monstruos (2013) REMUX 1080p Latino pelicula latino, Percy Jackson y El Mar De Los Monstruos (2013) REMUX 1080p Latino 1 link mega, Percy Jackson y El Mar De Los Monstruos (2013) REMUX 1080p Latino 1 link google drive, Percy Jackson y El Mar De Los Monstruos (2013) REMUX 1080p Latino hd 1080p latino.
Comentarios 0