×

¿Problemas para descargar con Mozilla, EDGE? Deshabilita la opción "Abrir vinculos en una pestaña nueva" tal como lo muestra ésta imagen.

Percy Jackson y El Mar De Los Monstruos (2013) Full HD 1080p Latino

385 vistas

Información de Percy Jackson y El Mar De Los Monstruos (2013) Full HD 1080p Latino

Datos de la película

  • Calidad: Full 1080p
  • Audio: Español Latino AC3 5.1 BLURAY - Ingles DTS 5.1 BLURAY
  • Subtitulos: Español Latino PGS - Ingles PGS
  • Resolución: 1920x1080p
  • Formato: MKV
  • Codec: H.264
  • Encoder: CinefiloCool
  • Mediainfo: Clic para Mostrar Datos Ver
  • Percy Jackson Y El Mar De Los Monstruos (2013) Full HD 1080p Latino.mkv
    Format                      : Matroska
    Format version              : Version 4
    File size                   : 5.37 GiB
    Duration                    : 1 h 46 min
    Overall bit rate            : 7 248 kb/s
    Movie name                  : Percy Jackson & Sea Of Monsters (2013) CinemaniaHDD.Net
    Encoded date                : UTC 2020-07-01 03:32:17
    Writing application         : mkvmerge v46.0.0 ('No Deeper Escape') 64-bit
    Writing library             : libebml v1.3.10 + libmatroska v1.5.2
    Attachments                 : CINEMANIAHD.png

    Video
    ID                          : 1
    Format                      : AVC
    Format/Info                 : Advanced Video Codec
    Format profile              : High@L4.1
    Format settings             : CABAC / 4 Ref Frames
    Format settings, CABAC      : Yes
    Format settings, Reference  : 4 frames
    Codec ID                    : V_MPEG4/ISO/AVC
    Duration                    : 1 h 46 min
    Bit rate                    : 5 270 kb/s
    Width                       : 1 920 pixels
    Height                      : 1 080 pixels
    Display aspect ratio        : 16:9
    Frame rate mode             : Constant
    Frame rate                  : 23.976 (24000/1001) FPS
    Color space                 : YUV
    Chroma subsampling          : 4:2:0
    Bit depth                   : 8 bits
    Scan type                   : Progressive
    Bits/(Pixel*Frame)          : 0.106
    Stream size                 : 3.91 GiB (73%)
    Title                       : Full HD1080p [CinemaniaHDD]
    Writing library             : x264 core 157 r2935 545de2f
    Encoding settings           : cabac=1 / ref=4 / deblock=1:0:0 / analyse=0x3:0x133 / me=tesa / subme=11 / psy=1 / psy_rd=1.00:0.00 / mixed_ref=1 / me_range=24 / chroma_me=1 / trellis=2 / 8x8dct=1 / cqm=0 / deadzone=21,11 / fast_pskip=0 / chroma_qp_offset=-2 / threads=24 / lookahead_threads=6 / sliced_threads=0 / nr=0 / decimate=1 / interlaced=0 / bluray_compat=0 / constrained_intra=0 / bframes=16 / b_pyramid=2 / b_adapt=2 / b_bias=0 / direct=3 / weightb=1 / open_gop=0 / weightp=2 / keyint=240 / keyint_min=24 / scenecut=40 / intra_refresh=0 / rc_lookahead=60 / rc=crf / mbtree=1 / crf=20.0 / qcomp=0.60 / qpmin=0 / qpmax=69 / qpstep=4 / vbv_maxrate=62500 / vbv_bufsize=78125 / crf_max=0.0 / nal_hrd=none / filler=0 / ip_ratio=1.40 / aq=1:1.00
    Default                     : Yes
    Forced                      : Yes
    Color range                 : Limited
    Color primaries             : BT.709
    Transfer characteristics    : BT.709
    Matrix coefficients         : BT.709

    Audio #1
    ID                          : 2
    Format                      : AC-3
    Format/Info                 : Audio Coding 3
    Commercial name             : Dolby Digital
    Codec ID                    : A_AC3
    Duration                    : 1 h 46 min
    Bit rate mode               : Constant
    Bit rate                    : 448 kb/s
    Channel(s)                  : 6 channels
    Channel layout              : L R C LFE Ls Rs
    Sampling rate               : 48.0 kHz
    Frame rate                  : 31.250 FPS (1536 SPF)
    Compression mode            : Lossy
    Stream size                 : 340 MiB (6%)
    Title                       : Español Latino [CinemaniaHDD]
    Language                    : Spanish
    Service kind                : Complete Main
    Default                     : Yes
    Forced                      : Yes

    Audio #2
    ID                          : 3
    Format                      : DTS ES
    Format/Info                 : Digital Theater Systems
    Commercial name             : DTS-ES Matrix
    Codec ID                    : A_DTS
    Duration                    : 1 h 46 min
    Bit rate mode               : Constant
    Bit rate                    : 1 509 kb/s
    Channel(s)                  : 6 channels
    Channel(s)_Original         : 7 channels
    ChannelLayout_Original      : C L R Ls Rs Cs LFE
    Sampling rate               : 48.0 kHz
    Frame rate                  : 93.750 FPS (512 SPF)
    Bit depth                   : 24 bits
    Compression mode            : Lossy
    Stream size                 : 1.12 GiB (21%)
    Title                       : Ingles [CinemaniaHDD]
    Language                    : English
    Default                     : No
    Forced                      : No

    Text #1
    ID                          : 4
    Format                      : PGS
    Muxing mode                 : zlib
    Codec ID                    : S_HDMV/PGS
    Codec ID/Info               : Picture based subtitle format used on BDs/HD-DVDs
    Duration                    : 1 h 44 min
    Bit rate                    : 30.0 kb/s
    Count of elements           : 2372
    Stream size                 : 22.6 MiB (0%)
    Title                       : Español-PGS [CinemaniaHDD]
    Language                    : Spanish
    Default                     : No
    Forced                      : No

    Text #2
    ID                          : 5
    Format                      : PGS
    Muxing mode                 : zlib
    Codec ID                    : S_HDMV/PGS
    Codec ID/Info               : Picture based subtitle format used on BDs/HD-DVDs
    Duration                    : 1 h 36 min
    Bit rate                    : 38.6 kb/s
    Count of elements           : 2814
    Stream size                 : 26.7 MiB (0%)
    Title                       : Ingles-PGS [CinemaniaHDD]
    Language                    : English
    Default                     : No
    Forced                      : No

    Text #3
    ID                          : 6
    Format                      : UTF-8
    Codec ID                    : S_TEXT/UTF8
    Codec ID/Info               : UTF-8 Plain Text
    Duration                    : 1 h 36 min
    Bit rate                    : 0 b/s
    Count of elements           : 8
    Stream size                 : 237 Bytes (0%)
    Title                       : Forzados-SRT [CinemaniaHDD]
    Language                    : Spanish
    Default                     : Yes
    Forced                      : Yes

    Text #4
    ID                          : 7
    Format                      : UTF-8
    Codec ID                    : S_TEXT/UTF8
    Codec ID/Info               : UTF-8 Plain Text
    Duration                    : 1 h 36 min
    Bit rate                    : 53 b/s
    Count of elements           : 1189
    Stream size                 : 37.6 KiB (0%)
    Title                       : Español-SRT [CinemaniaHDD]
    Language                    : Spanish
    Default                     : No
    Forced                      : No

    Menu
    00:00:00.000                : en:00:00:00.000
    00:04:05.454                : en:00:04:05.454
    00:06:43.069                : en:00:06:43.069
    00:09:31.696                : en:00:09:31.696
    00:13:53.124                : en:00:13:53.124
    00:19:17.156                : en:00:19:17.156
    00:20:48.038                : en:00:20:48.038
    00:22:10.496                : en:00:22:10.496
    00:25:30.529                : en:00:25:30.529
    00:28:22.826                : en:00:28:22.826
    00:30:27.534                : en:00:30:27.534
    00:33:19.998                : en:00:33:19.998
    00:37:01.261                : en:00:37:01.261
    00:39:49.596                : en:00:39:49.596
    00:45:16.380                : en:00:45:16.380
    00:48:50.177                : en:00:48:50.177
    00:52:42.951                : en:00:52:42.951
    00:56:35.100                : en:00:56:35.100
    01:00:19.866                : en:01:00:19.866
    01:03:35.895                : en:01:03:35.895
    01:05:40.687                : en:01:05:40.687
    01:10:41.696                : en:01:10:41.696
    01:12:32.181                : en:01:12:32.181
    01:16:52.817                : en:01:16:52.817
    01:19:39.441                : en:01:19:39.441
    01:23:01.768                : en:01:23:01.768
    01:25:45.807                : en:01:25:45.807
    01:29:54.264                : en:01:29:54.264
    01:32:47.312                : en:01:32:47.312
    01:34:25.243                : en:01:34:25.243
    01:36:07.971                : en:01:36:07.971
    01:37:39.187                : en:01:37:39.187

  • Peso: 5.37 GiB

Sinopsis

Descargar Percy Jackson y El Mar De Los Monstruos (2013) Full HD 1080p Latino. Percy Jackson no se siente un héroe. El semidiós hijo de Poseidón –el dios griego del mar– pudo salvar el mundo en una ocasión, pero Percy está empezando a pensar que pudo ser fruto de la casualidad. Y ahora la pregunta es: ¿ha resultado ser un fiasco? Ahora que Percy ha descubierto que tiene un hermanastro que es un monstruo, se pregunta si ser el hijo de Poseidón es una bendición o, más bien, una maldición…

Ficha técnica

Video trailer de la película

Enlaces de descarga

Rip de Bluray

Descargar Percy Jackson y El Mar De Los Monstruos (2013) Full HD 1080p Latino




Aportes de DPeliculasHDmega la pass es:dpeliculashdmega.org Aportes de CinemaniaHD la pass es:cinemaniahdd.com

Películas relacionadas

descargar Percy Jackson y El Mar De Los Monstruos (2013) Full HD 1080p Latino Full 1080p 1080p gratis, Percy Jackson y El Mar De Los Monstruos (2013) Full HD 1080p Latino Full 1080p mega 1 link, Percy Jackson y El Mar De Los Monstruos (2013) Full HD 1080p Latino Full 1080p pelicula completa, descargar Percy Jackson y El Mar De Los Monstruos (2013) Full HD 1080p Latino Full 1080p gratis en mega.

Percy Jackson y El Mar De Los Monstruos (2013) Full HD 1080p Latino pelicula full hd, Percy Jackson y El Mar De Los Monstruos (2013) Full HD 1080p Latino mega latino, Percy Jackson y El Mar De Los Monstruos (2013) Full HD 1080p Latino 4k latino, Percy Jackson y El Mar De Los Monstruos (2013) Full HD 1080p Latino pelicula completa, Percy Jackson y El Mar De Los Monstruos (2013) Full HD 1080p Latino descargar gratis, descargar Percy Jackson y El Mar De Los Monstruos (2013) Full HD 1080p Latino pelicula latino, Percy Jackson y El Mar De Los Monstruos (2013) Full HD 1080p Latino 1 link mega, Percy Jackson y El Mar De Los Monstruos (2013) Full HD 1080p Latino 1 link google drive, Percy Jackson y El Mar De Los Monstruos (2013) Full HD 1080p Latino hd 1080p latino.
Comentarios 0