×

¿Problemas para descargar con Mozilla, EDGE? Deshabilita la opción "Abrir vinculos en una pestaña nueva" tal como lo muestra ésta imagen.

Pequeños Secretos (2021) REMUX 1080p Latino

236 vistas

Información de Pequeños Secretos (2021) REMUX 1080p Latino

Datos de la película

  • Calidad: Full 1080p
  • Audio: Se especifica abajo de la Sinopsis
  • Subtitulos: Español PGS - Ingles PGS
  • Resolución: 1920x1080p
  • Formato: MKV
  • Codec: H.264
  • Encoder: Melkor
  • Mediainfo: Clic para Mostrar Datos Ver
  • Pequeños Secretos (2021) REMUX 1080p Latino.mkv
    Format                      : Matroska
    Format version              : Version 4
    File size                   : 30.7 GiB
    Duration                    : 2 h 7 min
    Overall bit rate mode       : Variable
    Overall bit rate            : 34.4 Mb/s
    Movie name                  : The Little Things (2021) CinemaniaHDD.Net
    Encoded date                : UTC 2021-04-29 04:45:35
    Writing application         : mkvmerge v56.1.0 ('My Friend') 64-bit
    Writing library             : libebml v1.4.2 + libmatroska v1.6.4
    Attachments                 : CINEMANIAHD.png

    Video
    ID                          : 1
    ID in the original source m : 4113 (0x1011)
    Format                      : AVC
    Format/Info                 : Advanced Video Codec
    Format profile              : High@L4.1
    Format settings             : CABAC / 4 Ref Frames
    Format settings, CABAC      : Yes
    Format settings, Reference  : 4 frames
    Codec ID                    : V_MPEG4/ISO/AVC
    Duration                    : 2 h 7 min
    Bit rate mode               : Variable
    Bit rate                    : 30.6 Mb/s
    Maximum bit rate            : 32.0 Mb/s
    Width                       : 1 920 pixels
    Height                      : 1 080 pixels
    Display aspect ratio        : 16:9
    Frame rate mode             : Constant
    Frame rate                  : 23.976 (24000/1001) FPS
    Color space                 : YUV
    Chroma subsampling          : 4:2:0
    Bit depth                   : 8 bits
    Scan type                   : Progressive
    Bits/(Pixel*Frame)          : 0.616
    Stream size                 : 27.4 GiB (89%)
    Title                       : REMUX HD1080p [CinemaniaHDD]
    Default                     : Yes
    Forced                      : No
    Original source medium      : Blu-ray

    Audio #1
    ID                          : 2
    Format                      : AC-3
    Format/Info                 : Audio Coding 3
    Commercial name             : Dolby Digital
    Codec ID                    : A_AC3
    Duration                    : 2 h 7 min
    Bit rate mode               : Constant
    Bit rate                    : 384 kb/s
    Channel(s)                  : 6 channels
    Channel layout              : L R C LFE Ls Rs
    Sampling rate               : 48.0 kHz
    Frame rate                  : 31.250 FPS (1536 SPF)
    Compression mode            : Lossy
    Delay relative to video     : 690 ms
    Stream size                 : 351 MiB (1%)
    Title                       : Español Latino [CinemaniaHDD]
    Language                    : Spanish
    Service kind                : Complete Main
    Default                     : Yes
    Forced                      : No

    Audio #2
    ID                          : 3
    ID in the original source m : 4352 (0x1100)
    Format                      : DTS XLL
    Format/Info                 : Digital Theater Systems
    Commercial name             : DTS-HD Master Audio
    Codec ID                    : A_DTS
    Duration                    : 2 h 7 min
    Bit rate mode               : Variable
    Bit rate                    : 3 332 kb/s
    Channel(s)                  : 6 channels
    Channel layout              : C L R Ls Rs LFE
    Sampling rate               : 48.0 kHz
    Frame rate                  : 93.750 FPS (512 SPF)
    Bit depth                   : 24 bits
    Compression mode            : Lossless
    Stream size                 : 2.97 GiB (10%)
    Title                       : Ingles [CinemaniaHDD]
    Language                    : English
    Default                     : No
    Forced                      : No
    Original source medium      : Blu-ray

    Text #1
    ID                          : 4
    ID in the original source m : 4621 (0x120D)
    Format                      : PGS
    Muxing mode                 : zlib
    Codec ID                    : S_HDMV/PGS
    Codec ID/Info               : Picture based subtitle format used on BDs/HD-DVDs
    Duration                    : 1 h 57 min
    Bit rate                    : 459 b/s
    Count of elements           : 38
    Stream size                 : 395 KiB (0%)
    Title                       : Forzados-PGS [CinemaniaHDD]
    Language                    : Spanish
    Default                     : Yes
    Forced                      : No
    Original source medium      : Blu-ray

    Text #2
    ID                          : 5
    ID in the original source m : 4612 (0x1204)
    Format                      : PGS
    Muxing mode                 : zlib
    Codec ID                    : S_HDMV/PGS
    Codec ID/Info               : Picture based subtitle format used on BDs/HD-DVDs
    Duration                    : 2 h 7 min
    Bit rate                    : 23.3 kb/s
    Count of elements           : 2496
    Stream size                 : 21.2 MiB (0%)
    Title                       : Español-PGS [CinemaniaHDD]
    Language                    : Spanish
    Default                     : No
    Forced                      : No
    Original source medium      : Blu-ray

    Text #3
    ID                          : 6
    ID in the original source m : 4608 (0x1200)
    Format                      : PGS
    Muxing mode                 : zlib
    Codec ID                    : S_HDMV/PGS
    Codec ID/Info               : Picture based subtitle format used on BDs/HD-DVDs
    Duration                    : 2 h 2 min
    Bit rate                    : 30.9 kb/s
    Count of elements           : 3090
    Stream size                 : 27.0 MiB (0%)
    Title                       : Ingles-PGS [CinemaniaHDD]
    Language                    : English
    Default                     : No
    Forced                      : No
    Original source medium      : Blu-ray

    Text #4
    ID                          : 7
    Format                      : UTF-8
    Codec ID                    : S_TEXT/UTF8
    Codec ID/Info               : UTF-8 Plain Text
    Duration                    : 18 min 29 s
    Bit rate                    : 0 b/s
    Count of elements           : 3
    Stream size                 : 135 Bytes (0%)
    Title                       : Forzados-SRT [CinemaniaHDD]
    Language                    : Spanish
    Default                     : No
    Forced                      : No

    Text #5
    ID                          : 8
    Format                      : UTF-8
    Codec ID                    : S_TEXT/UTF8
    Codec ID/Info               : UTF-8 Plain Text
    Duration                    : 2 h 2 min
    Bit rate                    : 40 b/s
    Count of elements           : 1197
    Stream size                 : 36.0 KiB (0%)
    Title                       : Español-SRT [CinemaniaHDD]
    Language                    : Spanish
    Default                     : No
    Forced                      : No

    Menu
    00:00:00.000                : Chapter 01
    00:04:14.295                : Chapter 02
    00:13:18.714                : Chapter 03
    00:23:18.021                : Chapter 04
    00:31:38.897                : Chapter 05
    00:40:27.591                : Chapter 06
    00:49:16.995                : Chapter 07
    00:58:38.348                : Chapter 08
    01:07:12.695                : Chapter 09
    01:15:27.898                : Chapter 10
    01:25:12.941                : Chapter 11
    01:34:59.485                : Chapter 12
    01:44:32.182                : Chapter 13
    01:51:47.075                : Chapter 14
    01:56:24.435                : Chapter 15
    02:02:34.555                : Chapter 16

  • Peso: 30.7 GiB

Sinopsis

Descargar Pequeños Secretos (2021) REMUX 1080p Latino. Joe ‘Deke’ Deacon, ayudante de sheriff del condado de Kern, es enviado a Los Angeles para lo que debería ser un caso rápido de recopilación de evidencias. Sin embargo, se ve involucrado en la búsqueda de un asesino en serie que aterroriza a la ciudad. Encabezando la investigación se encuentra el sargento del departamento del sheriff de Los Angeles, Jim Baxter, quien, impresionado por el instinto policial de Deke, le ayuda de manera extraoficial. Pero mientras siguen la pista al asesino, Baxter desconoce que la investigación desentierra partes del pasado de Deke que sacan a la luz secretos más peligrosos que el propio caso.

Español Latino AC3 5.1 WebDL – Ingles DTS-HD 5.1 Bluray

Ficha técnica

Video trailer de la película

Enlaces de descarga

Rip de Bluray

Descargar Pequeños Secretos (2021) REMUX 1080p Latino




Aportes de DPeliculasHDmega la pass es:dpeliculashdmega.org Aportes de CinemaniaHD la pass es:cinemaniahdd.com
Guardado en : Crimen , Remux , Suspenso

Películas relacionadas

descargar Pequeños Secretos (2021) REMUX 1080p Latino Full 1080p 1080p gratis, Pequeños Secretos (2021) REMUX 1080p Latino Full 1080p mega 1 link, Pequeños Secretos (2021) REMUX 1080p Latino Full 1080p pelicula completa, descargar Pequeños Secretos (2021) REMUX 1080p Latino Full 1080p gratis en mega.

Pequeños Secretos (2021) REMUX 1080p Latino pelicula full hd, Pequeños Secretos (2021) REMUX 1080p Latino mega latino, Pequeños Secretos (2021) REMUX 1080p Latino 4k latino, Pequeños Secretos (2021) REMUX 1080p Latino pelicula completa, Pequeños Secretos (2021) REMUX 1080p Latino descargar gratis, descargar Pequeños Secretos (2021) REMUX 1080p Latino pelicula latino, Pequeños Secretos (2021) REMUX 1080p Latino 1 link mega, Pequeños Secretos (2021) REMUX 1080p Latino 1 link google drive, Pequeños Secretos (2021) REMUX 1080p Latino hd 1080p latino.
Comentarios 0