Pequeños guerreros (1998) Full 1080p Latino

1.825 vistas
1 estrella2 estrellas3 estrellas4 estrellas5 estrellas (3 votos, promedio: 3,67 de 5)
Cargando…

Información de Pequeños guerreros (1998) Full 1080p Latino

Datos de la película

  • Calidad:
  • Audio: Español Latino AC3 5.1 DVD - Ingles DTS 5.1 BLURAY
  • Subtitulos: Español Latino PGS - Ingles PGS
  • Resolución: 1920x1080p
  • Formato: MKV
  • Codec: H.264
  • Encoder: Dracarys
  • Mediainfo: Clic para Mostrar Datos Ver
  • Format                                   : Matroska
    Format version                           : Version 4 / Version 2
    File size                                : 5.09 GiB
    Duration                                 : 1 h 49 min
    Overall bit rate                         : 6 627 kb/s
    Movie name                               : CinemaniaHDD.net
    Encoded date                             : UTC 2018-08-15 03:52:11 / UTC 2018-08-09T17:49:38Z
    Writing application                      : mkvmerge v15.0.0 ('Duel with the Devil') 64-bit
    Writing library                          : libebml v1.3.5 + libmatroska v1.4.5 / Lavf57.7.2

    Video
    ID                                       : 1
    Format                                   : AVC
    Format/Info                              : Advanced Video Codec
    Format profile                           : High@L4.1
    Format settings                          : CABAC / 4 Ref Frames
    Format settings, CABAC                   : Yes
    Format settings, RefFrames               : 4 frames
    Codec ID                                 : V_MPEG4/ISO/AVC
    Duration                                 : 1 h 49 min
    Bit rate                                 : 4 602 kb/s
    Width                                    : 1 920 pixels
    Height                                   : 1 080 pixels
    Display aspect ratio                     : 16:9
    Frame rate mode                          : Constant
    Frame rate                               : 23.976 (24000/1001) FPS
    Color space                              : YUV
    Chroma subsampling                       : 4:2:0
    Bit depth                                : 8 bits
    Scan type                                : Progressive
    Bits/(Pixel*Frame)                       : 0.093
    Stream size                              : 3.53 GiB (69%)
    Title                                    : Pequeños guerreros (1998) Full 1080p Latino
    Writing library                          : x264 core 148 r2708 86b7198
    Encoding settings                        : cabac=1 / ref=4 / deblock=1:0:0 / analyse=0x3:0x133 / me=esa / subme=10 / psy=1 / psy_rd=1.00:0.00 / mixed_ref=1 / me_range=24 / chroma_me=1 / trellis=2 / 8x8dct=1 / cqm=0 / deadzone=21,11 / fast_pskip=1 / chroma_qp_offset=-2 / threads=34 / lookahead_threads=5 / sliced_threads=0 / nr=0 / decimate=1 / interlaced=0 / bluray_compat=0 / constrained_intra=0 / bframes=8 / b_pyramid=2 / b_adapt=2 / b_bias=0 / direct=3 / weightb=1 / open_gop=0 / weightp=2 / keyint=240 / keyint_min=24 / scenecut=40 / intra_refresh=0 / rc_lookahead=60 / rc=crf / mbtree=1 / crf=20.0 / qcomp=0.60 / qpmin=0 / qpmax=69 / qpstep=4 / vbv_maxrate=62500 / vbv_bufsize=78125 / crf_max=0.0 / nal_hrd=none / filler=0 / ip_ratio=1.40 / aq=1:1.00
    Language                                 : English
    Default                                  : Yes
    Forced                                   : No
    Color range                              : Limited
    Color primaries                          : BT.709
    Transfer characteristics                 : BT.709
    Matrix coefficients                      : BT.709
    Statistics Tags Issue                    : mkvmerge v15.0.0 ('Duel with the Devil') 64-bit 2018-08-15 03:52:11 / mkvmerge v15.0.0 ('Duel with the Devil') 64-bit 2018-08-15 03:52:11 / UTC 2018-08-09T17:49:38Z
    FromStats_BitRate                        : 4708683
    FromStats_Duration                       : 01:49:47.623000000
    FromStats_FrameCount                     : 157945
    FromStats_StreamSize                     : 3877378771

    Audio #1
    ID                                       : 2
    Format                                   : AC-3
    Format/Info                              : Audio Coding 3
    Format settings, Endianness              : Big
    Codec ID                                 : A_AC3
    Duration                                 : 1 h 49 min
    Bit rate mode                            : Constant
    Bit rate                                 : 384 kb/s
    Channel(s)                               : 6 channels
    Channel positions                        : Front: L C R, Side: L R, LFE
    Sampling rate                            : 48.0 kHz
    Frame rate                               : 31.250 FPS (1536 SPF)
    Bit depth                                : 16 bits
    Compression mode                         : Lossy
    Delay relative to video                  : 500 ms
    Stream size                              : 302 MiB (6%)
    Language                                 : Spanish
    Service kind                             : Complete Main
    Default                                  : Yes
    Forced                                   : No
    Statistics Tags Issue                    : mkvmerge v15.0.0 ('Duel with the Devil') 64-bit 2018-08-15 03:52:11 / mkvmerge v15.0.0 ('Duel with the Devil') 64-bit 2018-08-15 03:52:11 / UTC 2018-08-09T17:49:38Z
    FromStats_BitRate                        : 384000
    FromStats_Duration                       : 01:49:53.024000000
    FromStats_FrameCount                     : 206032
    FromStats_StreamSize                     : 316465152

    Audio #2
    ID                                       : 3
    Format                                   : DTS
    Format/Info                              : Digital Theater Systems
    Mode                                     : 16
    Format settings, Endianness              : Big
    Codec ID                                 : A_DTS
    Duration                                 : 1 h 49 min
    Bit rate mode                            : Constant
    Bit rate                                 : 1 509 kb/s
    Channel(s)                               : 6 channels
    Channel positions                        : Front: L C R, Side: L R, LFE
    Sampling rate                            : 48.0 kHz
    Frame rate                               : 93.750 FPS (512 SPF)
    Bit depth                                : 24 bits
    Compression mode                         : Lossy
    Stream size                              : 1.16 GiB (23%)
    Language                                 : English
    Default                                  : No
    Forced                                   : No
    Statistics Tags Issue                    : mkvmerge v15.0.0 ('Duel with the Devil') 64-bit 2018-08-15 03:52:11 / mkvmerge v15.0.0 ('Duel with the Devil') 64-bit 2018-08-15 03:52:11 / UTC 2018-08-09T17:49:38Z
    FromStats_BitRate                        : 1508999
    FromStats_Duration                       : 01:49:47.627000000
    FromStats_FrameCount                     : 617590
    FromStats_StreamSize                     : 1242591080

    Text #1
    ID                                       : 4
    Format                                   : PGS
    Muxing mode                              : zlib
    Codec ID                                 : S_HDMV/PGS
    Codec ID/Info                            : Picture based subtitle format used on BDs/HD-DVDs
    Language                                 : English
    Default                                  : No
    Forced                                   : No
    Statistics Tags Issue                    : mkvmerge v15.0.0 ('Duel with the Devil') 64-bit 2018-08-15 03:52:11 / mkvmerge v15.0.0 ('Duel with the Devil') 64-bit 2018-08-15 03:52:11 / UTC 2018-08-09T17:49:38Z
    FromStats_BitRate                        : 31240
    FromStats_Duration                       : 01:48:37.886000000
    FromStats_FrameCount                     : 2422
    FromStats_StreamSize                     : 25453054

    Text #2
    ID                                       : 5
    Format                                   : PGS
    Muxing mode                              : zlib
    Codec ID                                 : S_HDMV/PGS
    Codec ID/Info                            : Picture based subtitle format used on BDs/HD-DVDs
    Language                                 : Spanish
    Default                                  : No
    Forced                                   : No
    Statistics Tags Issue                    : mkvmerge v15.0.0 ('Duel with the Devil') 64-bit 2018-08-15 03:52:11 / mkvmerge v15.0.0 ('Duel with the Devil') 64-bit 2018-08-15 03:52:11 / UTC 2018-08-09T17:49:38Z
    FromStats_BitRate                        : 46477
    FromStats_Duration                       : 01:48:46.693000000
    FromStats_FrameCount                     : 2600
    FromStats_StreamSize                     : 37917660

    Menu
    00:00:00.000                             : :The Globotech Touch (Main Titles)
    00:07:30.325                             : :A Toy That Kicks...
    00:10:31.673                             : :While Dad's Away...
    00:18:36.282                             : :The Stowaway Gorgonite
    00:21:43.302                             : :The Troublemaker
    00:29:40.529                             : :Bazooka and the Bike
    00:35:30.712                             : :The Rules Change
    00:42:50.485                             : :The Flaw in the Chips
    00:49:42.521                             : :Operation Sandman
    00:58:14.700                             : :The Rescue Mission
    01:04:33.745                             : :War!
    01:12:49.740                             : :A Small Siege
    01:18:46.263                             : :No More Hiding
    01:28:05.906                             : :Fried
    01:37:45.193                             : :To Find Gorgon
    01:44:14.123                             : :End Titles

  • Peso: 5.09 GiB

Sinopsis

El Comando Elite está formado por una patrulla de muñecos militares muy arrogantes y agresivos que han cobrado vida y escapado de sus cajas para acabar con los gorgonitas, unos muñecos de aspecto extraño pero absolutamente pacíficos que sólo sueñan con encontrar la isla de Gorgon. El adolescente Alan Abernathy se verá envuelto en esta contienda y tomará posiciones a favor de los Gorgonitas, lo que le llevará a él y a toda su familia a convertirse en el nuevo objetivo del Comando Elite, capaces de crear el caos en toda la ciudad.

Ficha técnica

Video trailer de la película

Enlaces de descarga

Rip de Bluray

Descargar Pequeños guerreros (1998) Full 1080p Latino




Aportes de DPeliculasHDmega la pass es:dpeliculashdmega.org Aportes de CinemaniaHD la pass es:cinemaniahdd.com

Películas relacionadas

  • Godzilla (2014) 1080p Latino

    2014
    Godzilla (2014) 1080p Latino

    0.0 2h 3m 2014

    Descargar Godzilla (2014) 1080p Latino, Mega, Google Drive, Torrent. Gareth Edwards dirige este "reboot",...

    Director: Jessica Clothier

    Género: Acción

    Actores: Yuki Morita

  • Godzilla (2014) Full 1080p Latino

    2014
    Godzilla (2014) Full 1080p Latino

    4.2 2h 3m 2014

    Descargar Godzilla (2014) Full 1080p Latino, Mega, Google Drive, Torrent. Gareth Edwards dirige este...

    Director: Jessica Clothier

    Género: Acción

    Actores: Yuki Morita

  • Un pequeño favor (2018) Full 1080p Latino

    2018
    Un pequeño favor (2018) Full 1080p Latino

    5.0 1h 57m 2018

    Descargar Un pequeño favor (2018) Full 1080p Latino, Mega, Google Drive, Torrent. Stephanie es una joven...

    Director: Paul Feig

    Género: Crimen

    Actores: Zach Smadu

Comentarios 0