×

¿Problemas para descargar con Mozilla, EDGE? Deshabilita la opción "Abrir vinculos en una pestaña nueva" tal como lo muestra ésta imagen.

Pequeña Q (2019) REMUX 1080p Latino

175 vistas

Información de Pequeña Q (2019) REMUX 1080p Latino

Datos de la película

  • Calidad: Full 1080p
  • Audio: Se especifica abajo de la Sinopsis
  • Subtitulos: Español Latino SRT- FORZADOS SRT
  • Resolución: 1920x1080p
  • Formato: MKV
  • Codec: H.264
  • Encoder: Melkor
  • Mediainfo: Clic para Mostrar Datos Ver
  • Pequeña Q (2019) REMUX 1080p Latino.mkv
    Format                      : Matroska
    Format version              : Version 4
    File size                   : 23.8 GiB
    Duration                    : 1 h 46 min
    Overall bit rate mode       : Variable
    Overall bit rate            : 31.9 Mb/s
    Movie name                  : Little Q (2019) [Xiao Q] CinemaniaHDD.Net
    Encoded date                : UTC 2022-02-08 01:50:32
    Writing application         : mkvmerge v56.1.0 ('My Friend') 64-bit
    Writing library             : libebml v1.4.2 + libmatroska v1.6.4
    Attachments                 : CINEMANIAHD.png

    Video
    ID                          : 1
    Format                      : AVC
    Format/Info                 : Advanced Video Codec
    Format profile              : High@L4.1
    Format settings             : CABAC / 4 Ref Frames
    Format settings, CABAC      : Yes
    Format settings, Reference  : 4 frames
    Codec ID                    : V_MPEG4/ISO/AVC
    Duration                    : 1 h 46 min
    Bit rate mode               : Variable
    Bit rate                    : 27.2 Mb/s
    Maximum bit rate            : 28.0 Mb/s
    Width                       : 1 920 pixels
    Height                      : 1 080 pixels
    Display aspect ratio        : 16:9
    Frame rate mode             : Constant
    Frame rate                  : 24.000 FPS
    Color space                 : YUV
    Chroma subsampling          : 4:2:0
    Bit depth                   : 8 bits
    Scan type                   : Progressive
    Bits/(Pixel*Frame)          : 0.547
    Stream size                 : 20.3 GiB (85%)
    Title                       : REMUX HD1080p [CinemaniaHDD]
    Default                     : Yes
    Forced                      : Yes

    Audio #1
    ID                          : 2
    Format                      : AC-3
    Format/Info                 : Audio Coding 3
    Commercial name             : Dolby Digital
    Codec ID                    : A_AC3
    Duration                    : 1 h 46 min
    Bit rate mode               : Constant
    Bit rate                    : 256 kb/s
    Channel(s)                  : 2 channels
    Channel layout              : L R
    Sampling rate               : 48.0 kHz
    Frame rate                  : 31.250 FPS (1536 SPF)
    Compression mode            : Lossy
    Stream size                 : 196 MiB (1%)
    Title                       : Español Latino [CinemaniaHDD]
    Language                    : Spanish
    Service kind                : Complete Main
    Default                     : Yes
    Forced                      : Yes

    Audio #2
    ID                          : 3
    Format                      : MLP FBA
    Format/Info                 : Meridian Lossless Packing FBA
    Commercial name             : Dolby TrueHD
    Codec ID                    : A_TRUEHD
    Duration                    : 1 h 46 min
    Bit rate mode               : Variable
    Bit rate                    : 3 766 kb/s
    Maximum bit rate            : 5 340 kb/s
    Channel(s)                  : 8 channels
    Channel layout              : L R C LFE Ls Rs Lb Rb
    Sampling rate               : 96.0 kHz
    Frame rate                  : 1 200.000 FPS (80 SPF)
    Compression mode            : Lossless
    Stream size                 : 2.81 GiB (12%)
    Title                       : Chino THD [CinemaniaHDD]
    Language                    : Chinese
    Default                     : No
    Forced                      : No

    Audio #3
    ID                          : 4
    Format                      : AC-3
    Format/Info                 : Audio Coding 3
    Commercial name             : Dolby Digital
    Format settings             : Dolby Surround EX
    Codec ID                    : A_AC3
    Duration                    : 1 h 46 min
    Bit rate mode               : Constant
    Bit rate                    : 640 kb/s
    Channel(s)                  : 6 channels
    Channel layout              : L R C LFE Ls Rs
    Sampling rate               : 48.0 kHz
    Frame rate                  : 31.250 FPS (1536 SPF)
    Compression mode            : Lossy
    Stream size                 : 489 MiB (2%)
    Title                       : Chino AC3 [CinemaniaHDD]
    Language                    : Chinese
    Service kind                : Complete Main
    Default                     : No
    Forced                      : No

    Text #1
    ID                          : 5
    Format                      : UTF-8
    Codec ID                    : S_TEXT/UTF8
    Codec ID/Info               : UTF-8 Plain Text
    Duration                    : 1 h 38 min
    Bit rate                    : 0 b/s
    Count of elements           : 7
    Stream size                 : 248 Bytes (0%)
    Title                       : Forzados-SRT [CinemaniaHDD]
    Language                    : Spanish
    Default                     : Yes
    Forced                      : Yes

    Text #2
    ID                          : 6
    Format                      : UTF-8
    Codec ID                    : S_TEXT/UTF8
    Codec ID/Info               : UTF-8 Plain Text
    Duration                    : 1 h 45 min
    Bit rate                    : 38 b/s
    Count of elements           : 1108
    Stream size                 : 29.8 KiB (0%)
    Title                       : Español-SRT [CinemaniaHDD]
    Language                    : Spanish
    Default                     : No
    Forced                      : No

    Text #3
    ID                          : 7
    Format                      : UTF-8
    Codec ID                    : S_TEXT/UTF8
    Codec ID/Info               : UTF-8 Plain Text
    Duration                    : 1 h 45 min
    Bit rate                    : 41 b/s
    Count of elements           : 1164
    Stream size                 : 31.9 KiB (0%)
    Title                       : Ingles-SRT [CinemaniaHDD]
    Language                    : English
    Default                     : No
    Forced                      : No

    Menu
    00:00:00.000                : Chapter 01
    00:04:02.250                : Chapter 02
    00:08:18.250                : Chapter 03
    00:13:33.208                : Chapter 04
    00:19:45.500                : Chapter 05
    00:26:41.375                : Chapter 06
    00:31:25.625                : Chapter 07
    00:35:08.167                : Chapter 08
    00:40:35.042                : Chapter 09
    00:44:12.792                : Chapter 10
    00:48:40.917                : Chapter 11
    00:53:04.958                : Chapter 12
    00:59:43.708                : Chapter 13
    01:06:40.125                : Chapter 14
    01:10:23.500                : Chapter 15
    01:16:41.417                : Chapter 16
    01:23:35.875                : Chapter 17
    01:29:02.500                : Chapter 18
    01:32:38.500                : Chapter 19
    01:38:04.125                : Chapter 20

  • Peso: 23.8 GiB

Sinopsis

Descargar Pequeña Q (2019) REMUX 1080p Latino. Little Q es un aspirante a perro guía, entrenado para ser un guía para ciegos. Little Q se asocia con Bo-ting, un renombrado chef de repostería que está perdiendo la vista. Pero Bo-ting es irritable y reacio, constantemente pierde los estribos con quienes lo rodean y rechaza a Little Q. Finalmente, el perro y el dueño se unen cuando Little Q gana a Bo-ting con su inquebrantable lealtad. Sin embargo, a medida que Little Q envejece y la salud de Bo-ting sufre, los dos se enfrentan a una separación involuntaria …

Español Latino AC3 2.0 – Chino TrueHD 7.1 & AC3 5.1

Ficha técnica

Video trailer de la película

Enlaces de descarga

Rip de Bluray

Descargar Pequeña Q (2019) REMUX 1080p Latino




Aportes de DPeliculasHDmega la pass es:dpeliculashdmega.org Aportes de CinemaniaHD la pass es:cinemaniahdd.com
Guardado en : Drama , Familia , Remux

Películas relacionadas

descargar Pequeña Q (2019) REMUX 1080p Latino Full 1080p 1080p gratis, Pequeña Q (2019) REMUX 1080p Latino Full 1080p mega 1 link, Pequeña Q (2019) REMUX 1080p Latino Full 1080p pelicula completa, descargar Pequeña Q (2019) REMUX 1080p Latino Full 1080p gratis en mega.

Pequeña Q (2019) REMUX 1080p Latino pelicula full hd, Pequeña Q (2019) REMUX 1080p Latino mega latino, Pequeña Q (2019) REMUX 1080p Latino 4k latino, Pequeña Q (2019) REMUX 1080p Latino pelicula completa, Pequeña Q (2019) REMUX 1080p Latino descargar gratis, descargar Pequeña Q (2019) REMUX 1080p Latino pelicula latino, Pequeña Q (2019) REMUX 1080p Latino 1 link mega, Pequeña Q (2019) REMUX 1080p Latino 1 link google drive, Pequeña Q (2019) REMUX 1080p Latino hd 1080p latino.
Comentarios 0