×

¿Problemas para descargar con Mozilla, EDGE? Deshabilita la opción "Abrir vinculos en una pestaña nueva" tal como lo muestra ésta imagen.

People There and Bah (2019) NF 1080p Castellano

549 vistas

Información de People There and Bah (2019) NF 1080p Castellano

gente que viene y bah 53158 poster

Datos de la película

  • Calidad: WEBDL
  • Audio: Español España AC3 5.1 Netflix
  • Subtitulos: Español España SRT - Ingles SRT
  • Resolución: 1920x1080
  • Formato: MKV
  • Codec: H.264
  • Encoder: Chesse92
  • Mediainfo: Clic para Mostrar Datos Ver
  • People There and Bah (2019) NF 1080p Castellano.mkv
    Format                      : Matroska
    Format version              : Version 4
    File size                   : 1.64 GiB
    Duration                    : 1 h 37 min
    Overall bit rate mode       : Variable
    Overall bit rate            : 2 399 kb/s
    Movie name                  : CinemaniHDD.net
    Encoded date                : UTC 2019-05-10 20:45:07
    Writing application         : mkvmerge v30.1.0 ('Forever And More') 64-bit
    Writing library             : libebml v1.3.6 + libmatroska v1.4.9

    Video
    ID                          : 1
    Format                      : AVC
    Format/Info                 : Advanced Video Codec
    Format profile              : High@L4
    Format settings             : CABAC / 4 Ref Frames
    Format settings, CABAC      : Yes
    Format settings, ReFrames   : 4 frames
    Codec ID                    : V_MPEG4/ISO/AVC
    Duration                    : 1 h 37 min
    Bit rate mode               : Variable
    Bit rate                    : 2 014 kb/s
    Maximum bit rate            : 20.0 Mb/s
    Width                       : 1 920 pixels
    Height                      : 1 080 pixels
    Display aspect ratio        : 16:9
    Frame rate mode             : Constant
    Frame rate                  : 24.000 FPS
    Color space                 : YUV
    Chroma subsampling          : 4:2:0
    Bit depth                   : 8 bits
    Scan type                   : Progressive
    Bits/(Pixel*Frame)          : 0.040
    Stream size                 : 1.37 GiB (84%)
    Writing library             : x264 core 148 r2715 7e75228
    Encoding settings           : cabac=1 / ref=4 / deblock=1:0:0 / analyse=0x3:0x111 / me=umh / subme=10 / psy=1 / psy_rd=1.00:0.00 / mixed_ref=1 / me_range=120 / chroma_me=1 / trellis=2 / 8x8dct=1 / cqm=0 / deadzone=21,11 / fast_pskip=1 / chroma_qp_offset=-2 / threads=8 / lookahead_threads=2 / sliced_threads=0 / nr=0 / decimate=1 / interlaced=0 / bluray_compat=0 / stitchable=1 / constrained_intra=0 / bframes=16 / b_pyramid=2 / b_adapt=2 / b_bias=0 / direct=3 / weightb=1 / open_gop=0 / weightp=2 / keyint=240 / keyint_min=121 / scenecut=0 / intra_refresh=0 / rc_lookahead=240 / rc=crf / mbtree=1 / crf=24.0 / qcomp=0.50 / qpmin=6 / qpmax=51 / qpstep=4 / vbv_maxrate=20000 / vbv_bufsize=25000 / crf_max=0.0 / nal_hrd=vbr / filler=0 / ip_ratio=1.40 / aq=1:0.80
    Default                     : Yes
    Forced                      : No

    Audio
    ID                          : 2
    Format                      : AC-3
    Format/Info                 : Audio Coding 3
    Commercial name             : Dolby Digital
    Codec ID                    : A_AC3
    Duration                    : 1 h 37 min
    Bit rate mode               : Constant
    Bit rate                    : 384 kb/s
    Channel(s)                  : 6 channels
    Channel layout              : L R C LFE Ls Rs
    Sampling rate               : 48.0 kHz
    Frame rate                  : 31.250 FPS (1536 SPF)
    Bit depth                   : 16 bits
    Compression mode            : Lossy
    Stream size                 : 268 MiB (16%)
    Service kind                : Complete Main
    Default                     : Yes
    Forced                      : No

    Text #1
    ID                          : 3
    Format                      : UTF-8
    Codec ID                    : S_TEXT/UTF8
    Codec ID/Info               : UTF-8 Plain Text
    Duration                    : 1 h 34 min
    Bit rate                    : 55 b/s
    Count of elements           : 1319
    Stream size                 : 38.3 KiB (0%)
    Title                       : English
    Language                    : English
    Default                     : No
    Forced                      : No

    Text #2
    ID                          : 4
    Format                      : UTF-8
    Codec ID                    : S_TEXT/UTF8
    Codec ID/Info               : UTF-8 Plain Text
    Duration                    : 1 h 36 min
    Bit rate                    : 63 b/s
    Count of elements           : 1485
    Stream size                 : 45.0 KiB (0%)
    Title                       : European Spanish
    Language                    : Spanish
    Default                     : No
    Forced                      : No

  • Peso: 1.64 GiB

Sinopsis

Todo va bien en la vida de Bea, una joven y talentosa arquitecta, hasta que en la misma semana pilla a su novio enrollándose con una de las presentadoras más guapas de la tele y es despedida con una indemnización ridícula. Con el desastre en los talones, Bea no tiene más remedio que volver a su pueblo natal, donde, además de un paisaje idílico, le espera un futuro incierto, una familia como poco peculiar y un vecino «misterioso»

Ficha técnica

Video trailer de la película

Enlaces de descarga

Rip de Bluray

Descargar People There and Bah (2019) NF 1080p Castellano




Aportes de DPeliculasHDmega la pass es:dpeliculashdmega.org Aportes de CinemaniaHD la pass es:cinemaniahdd.com

Películas relacionadas

descargar People There and Bah (2019) NF 1080p Castellano WEBDL 1080p gratis, People There and Bah (2019) NF 1080p Castellano WEBDL mega 1 link, People There and Bah (2019) NF 1080p Castellano WEBDL pelicula completa, descargar People There and Bah (2019) NF 1080p Castellano WEBDL gratis en mega.

People There and Bah (2019) NF 1080p Castellano pelicula full hd, People There and Bah (2019) NF 1080p Castellano mega latino, People There and Bah (2019) NF 1080p Castellano 4k latino, People There and Bah (2019) NF 1080p Castellano pelicula completa, People There and Bah (2019) NF 1080p Castellano descargar gratis, descargar People There and Bah (2019) NF 1080p Castellano pelicula latino, People There and Bah (2019) NF 1080p Castellano 1 link mega, People There and Bah (2019) NF 1080p Castellano 1 link google drive, People There and Bah (2019) NF 1080p Castellano hd 1080p latino.
Comentarios 0