×

¿Problemas para descargar con Mozilla, EDGE? Deshabilita la opción "Abrir vinculos en una pestaña nueva" tal como lo muestra ésta imagen.

Pennyworth (2022) Temporada 3 HMAX WEB-DL 1080p Latino

94 vistas

Información de Pennyworth (2022) Temporada 3 HMAX WEB-DL 1080p Latino

Datos de la película

  • Calidad: 1080p
  • Audio: Español Latino AC3 5.1 WEB-DL - Ingles AC3 5.1 WEB-DL
  • Subtitulos: Español Latino SRT - Ingles SRT
  • Resolución: 1920x1080
  • Formato: MKV
  • Codec: H.264
  • Encoder: cinemaniahdd
  • Mediainfo: Clic para Mostrar Datos Ver
  • Pennyworth The Origin of Batmans Butler T03E01 HMAX WEB-DL 1080p [CNMNHDD] .mkv
    Format                      : Matroska
    Format version              : Version 4
    File size                   : 2.98 GiB
    Duration                    : 47 min 18 s
    Overall bit rate mode       : Variable
    Overall bit rate            : 9 010 kb/s
    Movie name                  : Pennyworth The Origin of Batmans Butler S03E01 - Well To Do [1080p] - CinemaniaHDD.Net
    Encoded date                : UTC 2022-10-06 23:55:28
    Writing application         : mkvmerge v56.1.0 ('My Friend') 64-bit
    Writing library             : libebml v1.4.2 + libmatroska v1.6.4

    Video
    ID                          : 1
    Format                      : AVC
    Format/Info                 : Advanced Video Codec
    Format profile              : High@L4
    Format settings             : CABAC / 4 Ref Frames
    Format settings, CABAC      : Yes
    Format settings, Reference  : 4 frames
    Codec ID                    : V_MPEG4/ISO/AVC
    Duration                    : 47 min 18 s
    Bit rate mode               : Variable
    Bit rate                    : 8 250 kb/s
    Maximum bit rate            : 12.4 Mb/s
    Width                       : 1 920 pixels
    Height                      : 1 080 pixels
    Display aspect ratio        : 16:9
    Frame rate mode             : Constant
    Frame rate                  : 23.976 (24000/1001) FPS
    Color space                 : YUV
    Chroma subsampling          : 4:2:0
    Bit depth                   : 8 bits
    Scan type                   : Progressive
    Bits/(Pixel*Frame)          : 0.166
    Stream size                 : 2.72 GiB (91%)
    Title                       : CinemaniaHDD
    Writing library             : x264 core 157 r2965 861cec4
    Encoding settings           : cabac=1 / ref=4 / deblock=1:0:0 / analyse=0x3:0x113 / me=hex / subme=7 / psy=1 / psy_rd=1.00:0.00 / mixed_ref=1 / me_range=16 / chroma_me=1 / trellis=1 / 8x8dct=1 / cqm=0 / deadzone=21,11 / fast_pskip=1 / chroma_qp_offset=-2 / threads=34 / lookahead_threads=5 / sliced_threads=0 / nr=0 / decimate=1 / interlaced=0 / bluray_compat=0 / constrained_intra=0 / bframes=3 / b_pyramid=2 / b_adapt=1 / b_bias=0 / direct=1 / weightb=1 / open_gop=0 / weightp=2 / keyint=96 / keyint_min=96 / scenecut=40 / intra_refresh=0 / rc_lookahead=40 / rc=2pass / mbtree=1 / bitrate=8250 / ratetol=1.0 / qcomp=0.60 / qpmin=0 / qpmax=69 / qpstep=4 / cplxblur=20.0 / qblur=0.5 / vbv_maxrate=12375 / vbv_bufsize=6187 / nal_hrd=vbr / filler=0 / ip_ratio=1.40 / aq=1:1.00
    Default                     : Yes
    Forced                      : No
    Color range                 : Limited
    Color primaries             : BT.709
    Transfer characteristics    : BT.709
    Matrix coefficients         : BT.709

    Audio #1
    ID                          : 2
    Format                      : AC-3
    Format/Info                 : Audio Coding 3
    Commercial name             : Dolby Digital
    Codec ID                    : A_AC3
    Duration                    : 47 min 18 s
    Bit rate mode               : Constant
    Bit rate                    : 384 kb/s
    Channel(s)                  : 6 channels
    Channel layout              : L R C LFE Ls Rs
    Sampling rate               : 48.0 kHz
    Frame rate                  : 31.250 FPS (1536 SPF)
    Compression mode            : Lossy
    Stream size                 : 130 MiB (4%)
    Title                       : Español latino [CinemaniaHDD]
    Language                    : Spanish
    Service kind                : Complete Main
    Default                     : Yes
    Forced                      : No

    Audio #2
    ID                          : 3
    Format                      : AC-3
    Format/Info                 : Audio Coding 3
    Commercial name             : Dolby Digital
    Codec ID                    : A_AC3
    Duration                    : 47 min 18 s
    Bit rate mode               : Constant
    Bit rate                    : 384 kb/s
    Channel(s)                  : 6 channels
    Channel layout              : L R C LFE Ls Rs
    Sampling rate               : 48.0 kHz
    Frame rate                  : 31.250 FPS (1536 SPF)
    Compression mode            : Lossy
    Stream size                 : 130 MiB (4%)
    Title                       : Inglés [CinemaniaHDD]
    Language                    : English
    Service kind                : Complete Main
    Default                     : No
    Forced                      : No

    Text #1
    ID                          : 4
    Format                      : UTF-8
    Codec ID                    : S_TEXT/UTF8
    Codec ID/Info               : UTF-8 Plain Text
    Duration                    : 46 min 58 s
    Bit rate                    : 70 b/s
    Count of elements           : 555
    Stream size                 : 24.1 KiB (0%)
    Title                       : Español latino [CinemaniaHDD]
    Language                    : Spanish
    Default                     : No
    Forced                      : No

    Text #2
    ID                          : 5
    Format                      : UTF-8
    Codec ID                    : S_TEXT/UTF8
    Codec ID/Info               : UTF-8 Plain Text
    Duration                    : 46 min 3 s
    Bit rate                    : 80 b/s
    Count of elements           : 932
    Stream size                 : 27.3 KiB (0%)
    Title                       : Inglés [CinemaniaHDD]
    Language                    : English
    Default                     : No
    Forced                      : No

    Menu
    00:04:29.935                : Intro

     

  • Peso: 2.22 GiB C/U --- 10 CAPITULOS AGREGADOS

Sinopsis

Narra la historia de Alfred Pennyworth, un antiguo miembro de las fuerzas especiales londinenses que se encarga de trabajar para el padre de Bruce Wayne.

10 CAPITULOS AGREGADOS

Ficha técnica

  • Titulo original: Pennyworth: The Origin of Batman's Butler
  • Fecha de lanzamiento: 28-07-2019 (US)
  • Director: Bruno Heller
  • Género: Drama, Series

Video trailer de la película

Enlaces de descarga

Rip de Bluray

Descargar Pennyworth (2022) Temporada 3 HMAX WEB-DL 1080p Latino




Aportes de DPeliculasHDmega la pass es:dpeliculashdmega.org Aportes de CinemaniaHD la pass es:cinemaniahdd.com
Guardado en : Drama , Series

Películas relacionadas

descargar Pennyworth (2022) Temporada 3 HMAX WEB-DL 1080p Latino 1080p 1080p gratis, Pennyworth (2022) Temporada 3 HMAX WEB-DL 1080p Latino 1080p mega 1 link, Pennyworth (2022) Temporada 3 HMAX WEB-DL 1080p Latino 1080p serie completa, descargar Pennyworth (2022) Temporada 3 HMAX WEB-DL 1080p Latino 1080p gratis en mega.

Pennyworth (2022) Temporada 3 HMAX WEB-DL 1080p Latino pelicula full hd, Pennyworth (2022) Temporada 3 HMAX WEB-DL 1080p Latino mega latino, Pennyworth (2022) Temporada 3 HMAX WEB-DL 1080p Latino 4k latino, Pennyworth (2022) Temporada 3 HMAX WEB-DL 1080p Latino pelicula completa, Pennyworth (2022) Temporada 3 HMAX WEB-DL 1080p Latino descargar gratis, descargar Pennyworth (2022) Temporada 3 HMAX WEB-DL 1080p Latino pelicula latino, Pennyworth (2022) Temporada 3 HMAX WEB-DL 1080p Latino 1 link mega, Pennyworth (2022) Temporada 3 HMAX WEB-DL 1080p Latino 1 link google drive, Pennyworth (2022) Temporada 3 HMAX WEB-DL 1080p Latino hd 1080p latino.
Comentarios 0