×

¿Problemas para descargar con Mozilla, EDGE? Deshabilita la opción "Abrir vinculos en una pestaña nueva" tal como lo muestra ésta imagen.

Pennyworth (2021) Segunda Temporada AMZN WEB-DL 1080p Latino

590 vistas

Información de Pennyworth (2021) Segunda Temporada AMZN WEB-DL 1080p Latino

Datos de la película

  • Calidad: WEBDL
  • Audio: Español Latino E-AC3 5.1 AMAZON - Ingles E-AC3 5.1 AMAZON
  • Subtitulos: Español Latino SRT- FORZADOS SRT
  • Resolución: 1920x1080
  • Formato: MKV
  • Codec: H.264
  • Encoder: cinemaniahdd
  • Mediainfo: Clic para Mostrar Datos Ver
  • Pennyworth T02E01 AMZN WEB-DL 1080p Latino [CNMNHDD].mkv
    Format                      : Matroska
    Format version              : Version 4
    File size                   : 4.31 GiB
    Duration                    : 55 min 49 s
    Overall bit rate            : 11.0 Mb/s
    Movie name                  : Pennyworth T02E01 - CinemaniaHDD.Net
    Encoded date                : UTC 2021-02-28 22:12:43
    Writing application         : mkvmerge v51.0.0 ('I Wish') 64-bit
    Writing library             : libebml v1.4.0 + libmatroska v1.6.2

    Video
    ID                          : 1
    Format                      : AVC
    Format/Info                 : Advanced Video Codec
    Format profile              : High@L4
    Format settings             : CABAC / 4 Ref Frames
    Format settings, CABAC      : Yes
    Format settings, Reference  : 4 frames
    Codec ID                    : V_MPEG4/ISO/AVC
    Duration                    : 55 min 49 s
    Bit rate mode               : Constant
    Bit rate                    : 9 122 kb/s
    Nominal bit rate            : 10 000 kb/s
    Width                       : 1 920 pixels
    Height                      : 1 080 pixels
    Display aspect ratio        : 16:9
    Frame rate mode             : Constant
    Frame rate                  : 23.976 (24000/1001) FPS
    Color space                 : YUV
    Chroma subsampling          : 4:2:0
    Bit depth                   : 8 bits
    Scan type                   : Progressive
    Bits/(Pixel*Frame)          : 0.183
    Stream size                 : 3.56 GiB (83%)
    Title                       : CinemaniaHDD
    Default                     : Yes
    Forced                      : No
    Color range                 : Limited
    Color primaries             : BT.709
    Transfer characteristics    : BT.709
    Matrix coefficients         : BT.709

    Audio #1
    ID                          : 2
    Format                      : AC-3
    Format/Info                 : Audio Coding 3
    Commercial name             : Dolby Digital
    Codec ID                    : A_AC3
    Duration                    : 55 min 49 s
    Bit rate mode               : Constant
    Bit rate                    : 640 kb/s
    Channel(s)                  : 6 channels
    Channel layout              : L R C LFE Ls Rs
    Sampling rate               : 48.0 kHz
    Frame rate                  : 31.250 FPS (1536 SPF)
    Compression mode            : Lossy
    Stream size                 : 256 MiB (6%)
    Title                       : Español latino - AC3 [CinemaniaHDD]
    Language                    : Spanish
    Service kind                : Complete Main
    Default                     : Yes
    Forced                      : No

    Audio #2
    ID                          : 3
    Format                      : E-AC-3
    Format/Info                 : Enhanced AC-3
    Commercial name             : Dolby Digital Plus
    Codec ID                    : A_EAC3
    Duration                    : 55 min 49 s
    Bit rate mode               : Constant
    Bit rate                    : 640 kb/s
    Channel(s)                  : 6 channels
    Channel layout              : L R C LFE Ls Rs
    Sampling rate               : 48.0 kHz
    Frame rate                  : 31.250 FPS (1536 SPF)
    Compression mode            : Lossy
    Stream size                 : 256 MiB (6%)
    Title                       : Español latino - E-AC3 [CinemaniaHDD]
    Language                    : Spanish
    Service kind                : Complete Main
    Default                     : No
    Forced                      : No

    Audio #3
    ID                          : 4
    Format                      : E-AC-3
    Format/Info                 : Enhanced AC-3
    Commercial name             : Dolby Digital Plus
    Codec ID                    : A_EAC3
    Duration                    : 55 min 49 s
    Bit rate mode               : Constant
    Bit rate                    : 640 kb/s
    Channel(s)                  : 6 channels
    Channel layout              : L R C LFE Ls Rs
    Sampling rate               : 48.0 kHz
    Frame rate                  : 31.250 FPS (1536 SPF)
    Compression mode            : Lossy
    Stream size                 : 256 MiB (6%)
    Title                       : Inglés - E-AC3 [CinemaniaHDD]
    Language                    : English
    Service kind                : Complete Main
    Default                     : No
    Forced                      : No

    Text #1
    ID                          : 5
    Format                      : UTF-8
    Codec ID                    : S_TEXT/UTF8
    Codec ID/Info               : UTF-8 Plain Text
    Duration                    : 53 min 24 s
    Bit rate                    : 0 b/s
    Count of elements           : 13
    Stream size                 : 375 Bytes (0%)
    Title                       : Forzados [CinemaniaHDD]
    Language                    : Spanish
    Default                     : Yes
    Forced                      : No

    Text #2
    ID                          : 6
    Format                      : UTF-8
    Codec ID                    : S_TEXT/UTF8
    Codec ID/Info               : UTF-8 Plain Text
    Duration                    : 55 min 27 s
    Bit rate                    : 67 b/s
    Count of elements           : 838
    Stream size                 : 27.4 KiB (0%)
    Title                       : Español latino [CinemaniaHDD]
    Language                    : Spanish
    Default                     : No
    Forced                      : No

    Text #3
    ID                          : 7
    Format                      : UTF-8
    Codec ID                    : S_TEXT/UTF8
    Codec ID/Info               : UTF-8 Plain Text
    Duration                    : 54 min 34 s
    Bit rate                    : 76 b/s
    Count of elements           : 1138
    Stream size                 : 30.5 KiB (0%)
    Title                       : Inglés [CinemaniaHDD]
    Language                    : English
    Default                     : No
    Forced                      : No

     

  • Peso: 4.31 GiB Aprox ---- 41 GiB in 10 Chapters.

Sinopsis

Serie de TV (2019-Actualidad). 2 temporadas. Temporada 1: 10 episodios. La historia de Alfred Pennyworth, un antiguo miembro de las fuerzas especiales londinenses que se encarga de trabajar para el padre de Bruce Wayne.

Ficha técnica

Video trailer de la película

Enlaces de descarga

Rip de Bluray

Descargar Pennyworth (2021) Segunda Temporada AMZN WEB-DL 1080p Latino




Aportes de DPeliculasHDmega la pass es:dpeliculashdmega.org Aportes de CinemaniaHD la pass es:cinemaniahdd.com Aportes recientes:cinemaniahdd.net
Guardado en : Crimen , Drama , Sci-Fi & Fantasy , Series

Películas relacionadas

descargar Pennyworth (2021) Segunda Temporada AMZN WEB-DL 1080p Latino WEBDL 1080p gratis, Pennyworth (2021) Segunda Temporada AMZN WEB-DL 1080p Latino WEBDL mega 1 link, Pennyworth (2021) Segunda Temporada AMZN WEB-DL 1080p Latino WEBDL serie completa, descargar Pennyworth (2021) Segunda Temporada AMZN WEB-DL 1080p Latino WEBDL gratis en mega.

Pennyworth (2021) Segunda Temporada AMZN WEB-DL 1080p Latino pelicula full hd, Pennyworth (2021) Segunda Temporada AMZN WEB-DL 1080p Latino mega latino, Pennyworth (2021) Segunda Temporada AMZN WEB-DL 1080p Latino 4k latino, Pennyworth (2021) Segunda Temporada AMZN WEB-DL 1080p Latino pelicula completa, Pennyworth (2021) Segunda Temporada AMZN WEB-DL 1080p Latino descargar gratis, descargar Pennyworth (2021) Segunda Temporada AMZN WEB-DL 1080p Latino pelicula latino, Pennyworth (2021) Segunda Temporada AMZN WEB-DL 1080p Latino 1 link mega, Pennyworth (2021) Segunda Temporada AMZN WEB-DL 1080p Latino 1 link google drive, Pennyworth (2021) Segunda Temporada AMZN WEB-DL 1080p Latino hd 1080p latino.
Comentarios 1