×

¿Problemas para descargar con Mozilla, EDGE? Deshabilita la opción "Abrir vinculos en una pestaña nueva" tal como lo muestra ésta imagen.

Peleando Por Mi Vida (2021) REMUX 1080p Latino

113 vistas

Información de Peleando Por Mi Vida (2021) REMUX 1080p Latino

Datos de la película

  • Calidad: Full 1080p
  • Audio: Español Latino AC3 5.1 WEB-DL - Ingles DTS 5.1 BLURAY
  • Subtitulos: Español Latino SRT- FORZADOS SRT
  • Resolución: 1920x1080p
  • Formato: MKV
  • Codec: H.264
  • Encoder: Melkor
  • Mediainfo: Clic para Mostrar Datos Ver
  • Peleando Por Mi Vida (2021) REMUX 1080p Latino.mkv
    Format                      : Matroska
    Format version              : Version 4
    File size                   : 29.9 GiB
    Duration                    : 2 h 8 min
    Overall bit rate mode       : Variable
    Overall bit rate            : 33.2 Mb/s
    Movie name                  : The Survivor (2021) CinemaniaHDD.Net
    Encoded date                : UTC 2023-09-11 22:36:23
    Writing application         : mkvmerge v56.1.0 ('My Friend') 64-bit
    Writing library             : libebml v1.4.2 + libmatroska v1.6.4
    Attachments                 : CINEMANIAHD.png
    Site                        : CinemaniaHDD.Net
    Uploader                    : Melkor

    Video
    ID                          : 1
    ID in the original source m : 4113 (0x1011)
    Format                      : AVC
    Format/Info                 : Advanced Video Codec
    Format profile              : High@L4.1
    Format settings             : CABAC / 4 Ref Frames
    Format settings, CABAC      : Yes
    Format settings, Reference  : 4 frames
    Codec ID                    : V_MPEG4/ISO/AVC
    Duration                    : 2 h 8 min
    Bit rate mode               : Variable
    Bit rate                    : 28.8 Mb/s
    Maximum bit rate            : 33.0 Mb/s
    Width                       : 1 920 pixels
    Height                      : 1 080 pixels
    Display aspect ratio        : 16:9
    Frame rate mode             : Constant
    Frame rate                  : 24.000 FPS
    Color space                 : YUV
    Chroma subsampling          : 4:2:0
    Bit depth                   : 8 bits
    Scan type                   : Progressive
    Bits/(Pixel*Frame)          : 0.578
    Stream size                 : 25.9 GiB (87%)
    Title                       : REMUX HD1080p [CinemaniaHDD]
    Default                     : Yes
    Forced                      : Yes
    Original source medium      : Blu-ray

    Audio #1
    ID                          : 2
    Format                      : AC-3
    Format/Info                 : Audio Coding 3
    Commercial name             : Dolby Digital
    Codec ID                    : A_AC3
    Duration                    : 2 h 8 min
    Bit rate mode               : Constant
    Bit rate                    : 640 kb/s
    Channel(s)                  : 6 channels
    Channel layout              : L R C LFE Ls Rs
    Sampling rate               : 48.0 kHz
    Frame rate                  : 31.250 FPS (1536 SPF)
    Compression mode            : Lossy
    Stream size                 : 590 MiB (2%)
    Title                       : Español Latino [CinemaniaHDD]
    Language                    : Spanish
    Service kind                : Complete Main
    Default                     : Yes
    Forced                      : Yes

    Audio #2
    ID                          : 3
    ID in the original source m : 4353 (0x1101)
    Format                      : DTS XLL
    Format/Info                 : Digital Theater Systems
    Commercial name             : DTS-HD Master Audio
    Codec ID                    : A_DTS
    Duration                    : 2 h 8 min
    Bit rate mode               : Variable
    Bit rate                    : 3 840 kb/s
    Channel(s)                  : 6 channels
    Channel layout              : C L R Ls Rs LFE
    Sampling rate               : 48.0 kHz
    Frame rate                  : 93.750 FPS (512 SPF)
    Bit depth                   : 24 bits
    Compression mode            : Lossless
    Stream size                 : 3.46 GiB (12%)
    Title                       : Ingles [CinemaniaHDD]
    Language                    : English
    Default                     : No
    Forced                      : No
    Original source medium      : Blu-ray

    Text #1
    ID                          : 4
    Format                      : UTF-8
    Codec ID                    : S_TEXT/UTF8
    Codec ID/Info               : UTF-8 Plain Text
    Duration                    : 1 h 44 min
    Bit rate                    : 0 b/s
    Count of elements           : 9
    Stream size                 : 311 Bytes (0%)
    Title                       : Forzados-SRT [CinemaniaHDD]
    Language                    : Spanish
    Default                     : Yes
    Forced                      : Yes

    Text #2
    ID                          : 5
    Format                      : UTF-8
    Codec ID                    : S_TEXT/UTF8
    Codec ID/Info               : UTF-8 Plain Text
    Duration                    : 1 h 58 min
    Bit rate                    : 41 b/s
    Count of elements           : 1304
    Stream size                 : 36.5 KiB (0%)
    Title                       : Español-SRT [CinemaniaHDD]
    Language                    : Spanish
    Default                     : No
    Forced                      : No

    Text #3
    ID                          : 6
    Format                      : UTF-8
    Codec ID                    : S_TEXT/UTF8
    Codec ID/Info               : UTF-8 Plain Text
    Duration                    : 1 h 58 min
    Bit rate                    : 43 b/s
    Count of elements           : 1244
    Stream size                 : 37.4 KiB (0%)
    Title                       : Ingles [CinemaniaHDD]
    Language                    : English
    Default                     : No
    Forced                      : No

    Menu
    00:00:00.000                : Chapter 01
    00:12:16.666                : Chapter 02
    00:21:30.625                : Chapter 03
    00:31:25.708                : Chapter 04
    00:41:53.375                : Chapter 05
    00:54:27.541                : Chapter 06
    01:04:11.625                : Chapter 07
    01:14:58.250                : Chapter 08
    01:27:43.291                : Chapter 09
    01:38:27.000                : Chapter 10
    01:46:03.833                : Chapter 11
    01:59:20.791                : Chapter 12

  • Peso: 29.9 GiB

Sinopsis

Descargar Peleando Por Mi Vida (2021) REMUX 1080p Latino. Harry Haft es un boxeador que luchó contra sus compañeros prisioneros en los campos de concentración para sobrevivir. Atormentado por los recuerdos y su culpa, intenta usar peleas de alto perfil contra leyendas del boxeo como Rocky Marciano como una forma de encontrar a su primer amor nuevamente.

Ficha técnica

Video trailer de la película

Enlaces de descarga

Rip de Bluray

Descargar Peleando Por Mi Vida (2021) REMUX 1080p Latino




Aportes de DPeliculasHDmega la pass es:dpeliculashdmega.org Aportes de CinemaniaHD la pass es:cinemaniahdd.com Aportes recientes:cinemaniahdd.net
Guardado en : Acción , Drama , Historia , Remux

Películas relacionadas

descargar Peleando Por Mi Vida (2021) REMUX 1080p Latino Full 1080p 1080p gratis, Peleando Por Mi Vida (2021) REMUX 1080p Latino Full 1080p mega 1 link, Peleando Por Mi Vida (2021) REMUX 1080p Latino Full 1080p pelicula completa, descargar Peleando Por Mi Vida (2021) REMUX 1080p Latino Full 1080p gratis en mega.

Peleando Por Mi Vida (2021) REMUX 1080p Latino pelicula full hd, Peleando Por Mi Vida (2021) REMUX 1080p Latino mega latino, Peleando Por Mi Vida (2021) REMUX 1080p Latino 4k latino, Peleando Por Mi Vida (2021) REMUX 1080p Latino pelicula completa, Peleando Por Mi Vida (2021) REMUX 1080p Latino descargar gratis, descargar Peleando Por Mi Vida (2021) REMUX 1080p Latino pelicula latino, Peleando Por Mi Vida (2021) REMUX 1080p Latino 1 link mega, Peleando Por Mi Vida (2021) REMUX 1080p Latino 1 link google drive, Peleando Por Mi Vida (2021) REMUX 1080p Latino hd 1080p latino.
Comentarios 0