Pelea De Chicas (2020) PLACEBO Full HD 1080p Latino

61 vistas
1 estrella2 estrellas3 estrellas4 estrellas5 estrellas (Ninguna valoración todavía)
Cargando...

Información de Pelea De Chicas (2020) PLACEBO Full HD 1080p Latino

Datos de la película

  • Calidad: Full 1080p
  • Audio: Español Latino AC3 2.0 WEB-DL - Ingles AC3 5.1 BLURAY
  • Subtitulos: Español Latino SRT- FORZADOS SRT
  • Resolución: 1920x1080
  • Formato: MKV
  • Codec: H.264
  • Encoder: Melkor
  • Mediainfo: Clic para Mostrar Datos Ver
  • Pelea De Chicas (2020) PLACEBO 1080p Latino.mkv
    Format                      : Matroska
    Format version              : Version 4
    File size                   : 4.68 GiB
    Duration                    : 1 h 37 min
    Overall bit rate            : 6 887 kb/s
    Movie name                  : Chick Fight (2020) CinemaniaHDD.Net
    Encoded date                : UTC 2021-02-28 07:37:31
    Writing application         : mkvmerge v51.0.0 ('I Wish') 64-bit
    Writing library             : libebml v1.4.0 + libmatroska v1.6.2
    Attachments                 : CINEMANIAHD.png

    Video
    ID                          : 1
    Format                      : AVC
    Format/Info                 : Advanced Video Codec
    Format profile              : High@L4.1
    Format settings             : CABAC / 4 Ref Frames
    Format settings, CABAC      : Yes
    Format settings, Reference  : 4 frames
    Codec ID                    : V_MPEG4/ISO/AVC
    Duration                    : 1 h 37 min
    Bit rate                    : 6 180 kb/s
    Width                       : 1 920 pixels
    Height                      : 1 080 pixels
    Display aspect ratio        : 16:9
    Frame rate mode             : Constant
    Frame rate                  : 23.976 (24000/1001) FPS
    Color space                 : YUV
    Chroma subsampling          : 4:2:0
    Bit depth                   : 8 bits
    Scan type                   : Progressive
    Bits/(Pixel*Frame)          : 0.124
    Stream size                 : 4.20 GiB (90%)
    Title                       : Full HD1080p [CinemaniaHDD]
    Writing library             : x264 core 157 r2935 545de2f
    Encoding settings           : cabac=1 / ref=4 / deblock=1:0:0 / analyse=0x3:0x133 / me=tesa / subme=11 / psy=1 / psy_rd=1.00:0.00 / mixed_ref=1 / me_range=24 / chroma_me=1 / trellis=2 / 8x8dct=1 / cqm=0 / deadzone=21,11 / fast_pskip=0 / chroma_qp_offset=-2 / threads=24 / lookahead_threads=6 / sliced_threads=0 / nr=0 / decimate=1 / interlaced=0 / bluray_compat=0 / constrained_intra=0 / bframes=16 / b_pyramid=2 / b_adapt=2 / b_bias=0 / direct=3 / weightb=1 / open_gop=0 / weightp=2 / keyint=240 / keyint_min=24 / scenecut=40 / intra_refresh=0 / rc_lookahead=60 / rc=crf / mbtree=1 / crf=18.0 / qcomp=0.60 / qpmin=0 / qpmax=69 / qpstep=4 / vbv_maxrate=62500 / vbv_bufsize=78125 / crf_max=0.0 / nal_hrd=none / filler=0 / ip_ratio=1.40 / aq=1:1.00
    Default                     : Yes
    Forced                      : Yes
    Color range                 : Limited
    Color primaries             : BT.709
    Transfer characteristics    : BT.709
    Matrix coefficients         : BT.709

    Audio #1
    ID                          : 2
    Format                      : AC-3
    Format/Info                 : Audio Coding 3
    Commercial name             : Dolby Digital
    Codec ID                    : A_AC3
    Duration                    : 1 h 37 min
    Bit rate mode               : Constant
    Bit rate                    : 256 kb/s
    Channel(s)                  : 2 channels
    Channel layout              : L R
    Sampling rate               : 48.0 kHz
    Frame rate                  : 31.250 FPS (1536 SPF)
    Compression mode            : Lossy
    Stream size                 : 178 MiB (4%)
    Title                       : Español Latino [CinemaniaHDD]
    Language                    : Spanish
    Service kind                : Complete Main
    Default                     : Yes
    Forced                      : Yes

    Audio #2
    ID                          : 3
    Format                      : AC-3
    Format/Info                 : Audio Coding 3
    Commercial name             : Dolby Digital
    Codec ID                    : A_AC3
    Duration                    : 1 h 37 min
    Bit rate mode               : Constant
    Bit rate                    : 448 kb/s
    Channel(s)                  : 6 channels
    Channel layout              : L R C LFE Ls Rs
    Sampling rate               : 48.0 kHz
    Frame rate                  : 31.250 FPS (1536 SPF)
    Compression mode            : Lossy
    Stream size                 : 312 MiB (7%)
    Title                       : Ingles [CinemaniaHDD]
    Language                    : English
    Service kind                : Complete Main
    Default                     : No
    Forced                      : No

    Text #1
    ID                          : 4
    Format                      : UTF-8
    Codec ID                    : S_TEXT/UTF8
    Codec ID/Info               : UTF-8 Plain Text
    Duration                    : 1 h 25 min
    Bit rate                    : 0 b/s
    Count of elements           : 10
    Stream size                 : 276 Bytes (0%)
    Title                       : Forzados-SRT [CinemaniaHDD]
    Language                    : Spanish
    Default                     : Yes
    Forced                      : Yes

    Text #2
    ID                          : 5
    Format                      : UTF-8
    Codec ID                    : S_TEXT/UTF8
    Codec ID/Info               : UTF-8 Plain Text
    Duration                    : 1 h 33 min
    Bit rate                    : 76 b/s
    Count of elements           : 1789
    Stream size                 : 52.3 KiB (0%)
    Title                       : Español-SRT [CinemaniaHDD]
    Language                    : Spanish
    Default                     : No
    Forced                      : No

    Text #3
    ID                          : 6
    Format                      : UTF-8
    Codec ID                    : S_TEXT/UTF8
    Codec ID/Info               : UTF-8 Plain Text
    Duration                    : 1 h 36 min
    Bit rate                    : 76 b/s
    Count of elements           : 1946
    Stream size                 : 53.6 KiB (0%)
    Title                       : Ingles-SRT [CinemaniaHDD]
    Language                    : English
    Default                     : No
    Forced                      : No

    Menu
    00:00:00.000                : en:Chapter 01
    00:05:50.016                : en:Chapter 02
    00:12:11.897                : en:Chapter 03
    00:18:37.324                : en:Chapter 04
    00:27:25.352                : en:Chapter 05
    00:33:57.910                : en:Chapter 06
    00:38:26.429                : en:Chapter 07
    00:43:42.369                : en:Chapter 08
    00:48:11.179                : en:Chapter 09
    00:52:53.086                : en:Chapter 10
    01:01:54.752                : en:Chapter 11
    01:05:08.863                : en:Chapter 12
    01:12:49.740                : en:Chapter 13
    01:18:00.926                : en:Chapter 14
    01:24:33.818                : en:Chapter 15
    01:30:19.330                : en:Chapter 16

  • Peso: 4.68 GiB

Sinopsis

Descargar Pelea De Chicas (2020) PLACEBO Full HD 1080p Latino. Cuando Anna Wyncomb descubre un club de lucha underground de mujeres, se da cuenta de que está más conectada a la historia del club de lo que pensaba.

Ficha técnica

Video trailer de la película

Enlaces de descarga

Rip de Bluray

Descargar Pelea De Chicas (2020) PLACEBO Full HD 1080p Latino




Aportes de DPeliculasHDmega la pass es:dpeliculashdmega.org Aportes de CinemaniaHD la pass es:cinemaniahdd.com

Películas relacionadas

  • Horizon Line (2020) PLACEBO Full HD 1080p Latino

    Horizon Line (2020) PLACEBO Full HD 1080p Latino

    2020
    Horizon Line (2020) PLACEBO Full HD 1080p Latino

    0.0 1h 31m 2020

    Descargar Horizon Line (2020) PLACEBO Full HD 1080p Latino. Una pareja que viaja en un avión pequeño...

    Director: Mikael Marcimain

    Género: FULL 1080p Plateadas

    Actores: Pearl Mackie

  • Vanquish (2021) HD 1080p Latino

    Vanquish (2021) HD 1080p Latino

    2021
    Vanquish (2021) HD 1080p Latino

    3.0 1h 36m 2021

    Victoria es una madre joven que intenta dejar atrás su oscuro pasado como mensajero de drogas ruso,...

    Director: George Gallo

    Género: Acción

    Actores: Yvan Gauthier

  • Madame Curie (2019) PLACEBO Full HD 1080p Latino

    Madame Curie (2019) PLACEBO Full HD 1080p Latino

    2019
    Madame Curie (2019) PLACEBO Full HD 1080p Latino

    0.0 1h 55m 2019

    Descargar Madame Curie (2019) PLACEBO Full HD 1080p Latino. Cuenta la historia de la ganadora del Premio...

    Director: Phoebe Billington

    Género: Drama

    Actores: Tim Woodward

  • Proyecto Exorcismo (2019) PLACEBO Full HD 1080p Latino

    Proyecto Exorcismo (2019) PLACEBO Full HD 1080p Latino

    2019
    Proyecto Exorcismo (2019) PLACEBO Full HD 1080p Latino

    0.0 1h 34m 2019

    Descargar Proyecto Exorcismo (2019) PLACEBO Full HD 1080p Latino. Millennials y emprendedores, Drew y...

    Director: Damien LeVeck

    Género: FULL 1080p Plateadas

    Actores: Tiberiu Harsan

  • Juego De Tronos (2019) Temporada 8 Full 1080p Latino

    Juego De Tronos (2019) Temporada 8 Full 1080p Latino

    2019
    Juego De Tronos (2019) Temporada 8 Full 1080p Latino

    5.0 1h 0m 2019

    Después de que el Muro cayese a manos del Rey de la Noche y uno de los dragones de Daenerys fuese revivido...

    Director: David Benioff

    Género: Action & Adventure

    Actores: Sophie Turner

Pelea De Chicas (2020) PLACEBO Full HD 1080p Latino pelicula full hd, Pelea De Chicas (2020) PLACEBO Full HD 1080p Latino mega latino, Pelea De Chicas (2020) PLACEBO Full HD 1080p Latino 4k latino, Pelea De Chicas (2020) PLACEBO Full HD 1080p Latino pelicula completa, Pelea De Chicas (2020) PLACEBO Full HD 1080p Latino descargar gratis, descargar Pelea De Chicas (2020) PLACEBO Full HD 1080p Latino pelicula latino, Pelea De Chicas (2020) PLACEBO Full HD 1080p Latino 1 link mega, Pelea De Chicas (2020) PLACEBO Full HD 1080p Latino 1 link google drive, Pelea De Chicas (2020) PLACEBO Full HD 1080p Latino hd 1080p latino.
Comentarios 0