×

¿Problemas para descargar con Mozilla, EDGE? Deshabilita la opción "Abrir vinculos en una pestaña nueva" tal como lo muestra ésta imagen.

Pearl Harbor (2001) WEB-DL 1080p Latino – CMHDD

157 vistas

Información de Pearl Harbor (2001) WEB-DL 1080p Latino – CMHDD

Datos de la película

  • Calidad: WEBDL
  • Audio: Español Latino AC3 2.0 WEB-DL - Ingles AC3 5.1 BLURAY
  • Subtitulos: Español Latino SRT- FORZADOS SRT
  • Resolución: 19201080p
  • Formato:
  • Codec: H.264
  • Encoder: Dracarys
  • Mediainfo: Clic para Mostrar Datos Ver
  • Format                      : Matroska
    Format version              : Version 4
    File size                   : 11.5 GiB
    Duration                    : 3 h 3 min
    Overall bit rate mode       : Variable
    Overall bit rate            : 9 016 kb/s
    Movie name                  : Pearl Harbor (2001) WEB-DL 1080p Latino - CMHDD
    Encoded date                : UTC 2024-02-09 23:11:46
    Writing application         : mkvmerge v47.0.0 ('Black Flag') 64-bit
    Writing library             : libebml v1.3.10 + libmatroska v1.5.2

    Video
    ID                          : 1
    Format                      : AVC
    Format/Info                 : Advanced Video Codec
    Format profile              : High@L4
    Format settings             : CABAC / 4 Ref Frames
    Format settings, CABAC      : Yes
    Format settings, Reference  : 4 frames
    Codec ID                    : V_MPEG4/ISO/AVC
    Duration                    : 3 h 3 min
    Bit rate mode               : Variable
    Bit rate                    : 8 502 kb/s
    Maximum bit rate            : 12.7 Mb/s
    Width                       : 1 920 pixels
    Height                      : 1 080 pixels
    Display aspect ratio        : 16:9
    Frame rate mode             : Constant
    Frame rate                  : 23.976 (24000/1001) FPS
    Color space                 : YUV
    Chroma subsampling          : 4:2:0
    Bit depth                   : 8 bits
    Scan type                   : Progressive
    Bits/(Pixel*Frame)          : 0.171
    Stream size                 : 10.9 GiB (94%)
    Language                    : Spanish
    Default                     : Yes
    Forced                      : Yes
    Color range                 : Limited
    Color primaries             : BT.709
    Transfer characteristics    : BT.709
    Matrix coefficients         : BT.709

    Audio #1
    ID                          : 2
    Format                      : E-AC-3
    Format/Info                 : Enhanced AC-3
    Commercial name             : Dolby Digital Plus
    Codec ID                    : A_EAC3
    Duration                    : 3 h 3 min
    Bit rate mode               : Constant
    Bit rate                    : 256 kb/s
    Channel(s)                  : 2 channels
    Channel layout              : L R
    Sampling rate               : 48.0 kHz
    Frame rate                  : 31.250 FPS (1536 SPF)
    Compression mode            : Lossy
    Delay relative to video     : 28 ms
    Stream size                 : 335 MiB (3%)
    Language                    : Spanish
    Service kind                : Complete Main
    Default                     : Yes
    Forced                      : No

    Audio #2
    ID                          : 3
    Format                      : E-AC-3
    Format/Info                 : Enhanced AC-3
    Commercial name             : Dolby Digital Plus
    Codec ID                    : A_EAC3
    Duration                    : 3 h 3 min
    Bit rate mode               : Constant
    Bit rate                    : 256 kb/s
    Channel(s)                  : 6 channels
    Channel layout              : L R C LFE Ls Rs
    Sampling rate               : 48.0 kHz
    Frame rate                  : 31.250 FPS (1536 SPF)
    Compression mode            : Lossy
    Stream size                 : 335 MiB (3%)
    Language                    : English
    Service kind                : Complete Main
    Default                     : No
    Forced                      : No

    Text #1
    ID                          : 4
    Format                      : UTF-8
    Codec ID                    : S_TEXT/UTF8
    Codec ID/Info               : UTF-8 Plain Text
    Duration                    : 2 h 19 min
    Bit rate                    : 2 b/s
    Frame rate                  : 0.006 FPS
    Count of elements           : 50
    Stream size                 : 2.21 KiB (0%)
    Title                       : Forzado
    Language                    : Spanish
    Default                     : Yes
    Forced                      : Yes

    Text #2
    ID                          : 5
    Format                      : UTF-8
    Codec ID                    : S_TEXT/UTF8
    Codec ID/Info               : UTF-8 Plain Text
    Duration                    : 2 h 55 min
    Bit rate                    : 57 b/s
    Frame rate                  : 0.219 FPS
    Count of elements           : 2308
    Stream size                 : 73.3 KiB (0%)
    Language                    : Spanish
    Default                     : No
    Forced                      : No

     

  • Peso: 11.5 GiB

Sinopsis

Rafe y Danny crecieron juntos en una zona rural estadounidense y su amistad se ha prolongado a lo largo de los años hasta las filas del ejercito del aire, donde los dos son pilotos de combate. Rafe encontró en Evelyn, una valiente enfermera, al amor de su vida, pero pronto es llamado a servir en la fuerza aérea británica para combatir a los nazis como representante del ejército estadounidense. Mientras tanto, Danny y Evelyn son enviados a la base aérea de Pearl Harbor en Hawai. Una vez allí, ambos se enamoran mientras Rafe es derribado en combate. Para sorpresa de ambos, Rafe sobrevive y regresa a Pearl Harbor pero todo se complica cuando se produce un mortal bombardeo por parte del ejercito japonés.

Ficha técnica

Video trailer de la película

Enlaces de descarga

Rip de Bluray

Descargar Pearl Harbor (2001) WEB-DL 1080p Latino – CMHDD




Aportes de DPeliculasHDmega la pass es:dpeliculashdmega.org Aportes de CinemaniaHD la pass es:cinemaniahdd.com Aportes recientes:cinemaniahdd.net
Guardado en : Acción , Bélica , Drama , Historia , Romance

Películas relacionadas

descargar Pearl Harbor (2001) WEB-DL 1080p Latino – CMHDD WEBDL 1080p gratis, Pearl Harbor (2001) WEB-DL 1080p Latino – CMHDD WEBDL mega 1 link, Pearl Harbor (2001) WEB-DL 1080p Latino – CMHDD WEBDL pelicula completa, descargar Pearl Harbor (2001) WEB-DL 1080p Latino – CMHDD WEBDL gratis en mega.

Pearl Harbor (2001) WEB-DL 1080p Latino – CMHDD pelicula full hd, Pearl Harbor (2001) WEB-DL 1080p Latino – CMHDD mega latino, Pearl Harbor (2001) WEB-DL 1080p Latino – CMHDD 4k latino, Pearl Harbor (2001) WEB-DL 1080p Latino – CMHDD pelicula completa, Pearl Harbor (2001) WEB-DL 1080p Latino – CMHDD descargar gratis, descargar Pearl Harbor (2001) WEB-DL 1080p Latino – CMHDD pelicula latino, Pearl Harbor (2001) WEB-DL 1080p Latino – CMHDD 1 link mega, Pearl Harbor (2001) WEB-DL 1080p Latino – CMHDD 1 link google drive, Pearl Harbor (2001) WEB-DL 1080p Latino – CMHDD hd 1080p latino.
Comentarios 0