×

¿Problemas para descargar con Mozilla, EDGE? Deshabilita la opción "Abrir vinculos en una pestaña nueva" tal como lo muestra ésta imagen.

Peaky Blinders (2019) Quinta Temporada REMUX 1080p Latino – CMHDD

216 vistas

Información de Peaky Blinders (2019) Quinta Temporada REMUX 1080p Latino – CMHDD

Datos de la película

  • Calidad: Full 1080p
  • Audio: Se especifica abajo de la Sinopsis
  • Subtitulos: Español Latino SRT- FORZADOS SRT
  • Resolución: 1920x1080p
  • Formato: MKV
  • Codec: H.264
  • Encoder: Dracarys
  • Mediainfo: Clic para Mostrar Datos Ver
  • Format                      : Matroska
    Format version              : Version 4
    File size                   : 12.8 GiB
    Duration                    : 57 min 26 s
    Overall bit rate mode       : Variable
    Overall bit rate            : 31.8 Mb/s
    Movie name                  : Peaky Blinders (2019) [S05E01] REMUX 1080p Latino - CMHDD
    Encoded date                : UTC 2021-02-20 01:33:38
    Writing application         : mkvmerge v51.0.0 ('I Wish') 64-bit
    Writing library             : libebml v1.4.0 + libmatroska v1.6.2

    Video
    ID                          : 1
    Format                      : AVC
    Format/Info                 : Advanced Video Codec
    Format profile              : High@L4.1
    Format settings             : CABAC / 4 Ref Frames
    Format settings, CABAC      : Yes
    Format settings, Reference  : 4 frames
    Codec ID                    : V_MPEG4/ISO/AVC
    Duration                    : 56 min 38 s
    Bit rate mode               : Variable
    Bit rate                    : 29.8 Mb/s
    Maximum bit rate            : 33.0 Mb/s
    Width                       : 1 920 pixels
    Height                      : 1 080 pixels
    Display aspect ratio        : 16:9
    Frame rate mode             : Constant
    Frame rate                  : 25.000 FPS
    Color space                 : YUV
    Chroma subsampling          : 4:2:0
    Bit depth                   : 8 bits
    Scan type                   : MBAFF
    Scan type, store method     : Interleaved fields
    Scan order                  : Top Field First
    Bits/(Pixel*Frame)          : 0.575
    Stream size                 : 11.8 GiB (93%)
    Language                    : English
    Default                     : Yes
    Forced                      : No

    Audio #1
    ID                          : 2
    Format                      : AC-3
    Format/Info                 : Audio Coding 3
    Commercial name             : Dolby Digital
    Codec ID                    : A_AC3
    Duration                    : 57 min 26 s
    Bit rate mode               : Constant
    Bit rate                    : 640 kb/s
    Channel(s)                  : 6 channels
    Channel layout              : L R C LFE Ls Rs
    Sampling rate               : 48.0 kHz
    Frame rate                  : 31.250 FPS (1536 SPF)
    Compression mode            : Lossy
    Stream size                 : 263 MiB (2%)
    Language                    : Spanish
    Service kind                : Complete Main
    Default                     : Yes
    Forced                      : No

    Audio #2
    ID                          : 3
    Format                      : DTS XLL
    Format/Info                 : Digital Theater Systems
    Commercial name             : DTS-HD Master Audio
    Codec ID                    : A_DTS
    Duration                    : 56 min 37 s
    Bit rate mode               : Variable
    Bit rate                    : 1 760 kb/s
    Channel(s)                  : 6 channels
    Channel layout              : C L R Ls Rs LFE
    Sampling rate               : 48.0 kHz
    Frame rate                  : 93.750 FPS (512 SPF)
    Bit depth                   : 16 bits
    Compression mode            : Lossless
    Stream size                 : 713 MiB (5%)
    Language                    : English
    Default                     : No
    Forced                      : No

    Text #1
    ID                          : 4
    Format                      : UTF-8
    Codec ID                    : S_TEXT/UTF8
    Codec ID/Info               : UTF-8 Plain Text
    Duration                    : 1 min 25 s
    Bit rate                    : 55 b/s
    Count of elements           : 17
    Stream size                 : 591 Bytes (0%)
    Language                    : Spanish
    Default                     : Yes
    Forced                      : No

    Text #2
    ID                          : 5
    Format                      : UTF-8
    Codec ID                    : S_TEXT/UTF8
    Codec ID/Info               : UTF-8 Plain Text
    Duration                    : 54 min 42 s
    Bit rate                    : 56 b/s
    Count of elements           : 709
    Stream size                 : 22.5 KiB (0%)
    Language                    : Spanish
    Default                     : No
    Forced                      : No

    Menu
    00:00:00.000                : en:Chapter 1
    00:10:49.800                : en:Chapter 2
    00:21:23.280                : en:Chapter 3
    00:28:32.840                : en:Chapter 4
    00:38:41.360                : en:Chapter 5
    00:50:40.200                : en:Chapter 6

  • Peso: 76.6 GiB

Sinopsis

En la quinta temporada la historia de los Peaky Blinders y de la familia Shelby se sumergen en el caos de la crisis financiera de 1929. El protagonista, Tommy Shelby, ahora es diputado y le aborda un político carismático para proponerle un algo que puede afectar a su familia, incluso al futuro de la nación.

 

 

Latino: AC3 5.1  –  Ingles: DTS-HD MA 5.1

 

Ficha técnica

Video trailer de la película

Enlaces de descarga

Rip de Bluray

Descargar Peaky Blinders (2019) Quinta Temporada REMUX 1080p Latino – CMHDD


Aportes de DPeliculasHDmega la pass es:dpeliculashdmega.org Aportes de CinemaniaHD la pass es:cinemaniahdd.com
Guardado en : Crimen , Drama

Películas relacionadas

descargar Peaky Blinders (2019) Quinta Temporada REMUX 1080p Latino – CMHDD Full 1080p 1080p gratis, Peaky Blinders (2019) Quinta Temporada REMUX 1080p Latino – CMHDD Full 1080p mega 1 link, Peaky Blinders (2019) Quinta Temporada REMUX 1080p Latino – CMHDD Full 1080p pelicula completa, descargar Peaky Blinders (2019) Quinta Temporada REMUX 1080p Latino – CMHDD Full 1080p gratis en mega.

Peaky Blinders (2019) Quinta Temporada REMUX 1080p Latino – CMHDD pelicula full hd, Peaky Blinders (2019) Quinta Temporada REMUX 1080p Latino – CMHDD mega latino, Peaky Blinders (2019) Quinta Temporada REMUX 1080p Latino – CMHDD 4k latino, Peaky Blinders (2019) Quinta Temporada REMUX 1080p Latino – CMHDD pelicula completa, Peaky Blinders (2019) Quinta Temporada REMUX 1080p Latino – CMHDD descargar gratis, descargar Peaky Blinders (2019) Quinta Temporada REMUX 1080p Latino – CMHDD pelicula latino, Peaky Blinders (2019) Quinta Temporada REMUX 1080p Latino – CMHDD 1 link mega, Peaky Blinders (2019) Quinta Temporada REMUX 1080p Latino – CMHDD 1 link google drive, Peaky Blinders (2019) Quinta Temporada REMUX 1080p Latino – CMHDD hd 1080p latino.
Comentarios 0