Peaky Blinders (2017) Cuarta Temporada REMUX 1080p Latino – CMHDD

23 vistas
1 estrella2 estrellas3 estrellas4 estrellas5 estrellas (Ninguna valoración todavía)
Cargando...

Información de Peaky Blinders (2017) Cuarta Temporada REMUX 1080p Latino – CMHDD

Datos de la película

  • Calidad: Full 1080p
  • Audio: Se especifica abajo de la Sinopsis
  • Subtitulos: Español Latino SRT- FORZADOS SRT
  • Resolución: 1920x1080p
  • Formato: MKV
  • Codec: H.264
  • Encoder: Dracarys
  • Mediainfo: Clic para Mostrar Datos Ver
  • Format                      : Matroska
    Format version              : Version 4
    File size                   : 13.0 GiB
    Duration                    : 58 min 20 s
    Overall bit rate mode       : Variable
    Overall bit rate            : 32.0 Mb/s
    Movie name                  : Peaky Blinders (2017) [S04E01] REMUX 1080p Latino - CMHDD
    Encoded date                : UTC 2021-02-17 01:38:59
    Writing application         : mkvmerge v51.0.0 ('I Wish') 64-bit
    Writing library             : libebml v1.4.0 + libmatroska v1.6.2

    Video
    ID                          : 1
    Format                      : AVC
    Format/Info                 : Advanced Video Codec
    Format profile              : High@L4.1
    Format settings             : CABAC / 4 Ref Frames
    Format settings, CABAC      : Yes
    Format settings, Reference  : 4 frames
    Codec ID                    : V_MPEG4/ISO/AVC
    Duration                    : 57 min 54 s
    Bit rate mode               : Variable
    Bit rate                    : 29.8 Mb/s
    Maximum bit rate            : 33.0 Mb/s
    Width                       : 1 920 pixels
    Height                      : 1 080 pixels
    Display aspect ratio        : 16:9
    Frame rate mode             : Constant
    Frame rate                  : 25.000 FPS
    Color space                 : YUV
    Chroma subsampling          : 4:2:0
    Bit depth                   : 8 bits
    Scan type                   : MBAFF
    Scan type, store method     : Interleaved fields
    Scan order                  : Top Field First
    Bits/(Pixel*Frame)          : 0.576
    Stream size                 : 12.1 GiB (93%)
    Language                    : English
    Default                     : Yes
    Forced                      : No

    Audio #1
    ID                          : 2
    Format                      : AC-3
    Format/Info                 : Audio Coding 3
    Commercial name             : Dolby Digital
    Codec ID                    : A_AC3
    Duration                    : 58 min 20 s
    Bit rate mode               : Constant
    Bit rate                    : 640 kb/s
    Channel(s)                  : 6 channels
    Channel layout              : L R C LFE Ls Rs
    Sampling rate               : 48.0 kHz
    Frame rate                  : 31.250 FPS (1536 SPF)
    Compression mode            : Lossy
    Stream size                 : 267 MiB (2%)
    Language                    : Spanish
    Service kind                : Complete Main
    Default                     : Yes
    Forced                      : No

    Audio #2
    ID                          : 3
    Format                      : DTS XLL
    Format/Info                 : Digital Theater Systems
    Commercial name             : DTS-HD Master Audio
    Codec ID                    : A_DTS
    Duration                    : 57 min 54 s
    Bit rate mode               : Variable
    Bit rate                    : 1 763 kb/s
    Channel(s)                  : 6 channels
    Channel layout              : C L R Ls Rs LFE
    Sampling rate               : 48.0 kHz
    Frame rate                  : 93.750 FPS (512 SPF)
    Bit depth                   : 16 bits
    Compression mode            : Lossless
    Stream size                 : 730 MiB (5%)
    Language                    : English
    Default                     : No
    Forced                      : No

    Text
    ID                          : 4
    Format                      : UTF-8
    Codec ID                    : S_TEXT/UTF8
    Codec ID/Info               : UTF-8 Plain Text
    Duration                    : 56 min 49 s
    Bit rate                    : 57 b/s
    Count of elements           : 756
    Stream size                 : 24.1 KiB (0%)
    Language                    : Spanish
    Default                     : No
    Forced                      : No

    Menu
    00:00:00.000                : en:Chapter 1
    00:10:07.880                : en:Chapter 2
    00:19:53.640                : en:Chapter 3
    00:31:42.760                : en:Chapter 4
    00:40:09.440                : en:Chapter 5
    00:46:17.560                : en:Chapter 6

  • Peso: 76 GiB Total

Sinopsis

Sinopsis. En la cuarta temporada cada miembro de la familia Shelby recibe una misteriosa carta el día de Nochebuena y se dan cuenta de que están en peligro. Un año más tarde del distanciamiento entre los Shelby, la familia se convierte en el objetivo de unos mafiosos

 

Latino: AC3 5.1  –  Ingles: DTS-HD MA 5.1

Ficha técnica

  • Titulo original: Peaky Blinders
  • Fecha de lanzamiento: 12-09-2013 (GB)
  • Director: Steven Knight
  • Género: Crimen, Drama
  • Puntuación: 0.0 0 votos
  • Duración:
    1h 0m

Video trailer de la película

Enlaces de descarga

Rip de Bluray

Descargar Peaky Blinders (2017) Cuarta Temporada REMUX 1080p Latino – CMHDD


Aportes de DPeliculasHDmega la pass es:dpeliculashdmega.org Aportes de CinemaniaHD la pass es:cinemaniahdd.com
Guardado en : Crimen , Drama

Películas relacionadas

  • Sola (2020) HD 1080p Latino

    Sola (2020) HD 1080p Latino

    2020
    Sola (2020) HD 1080p Latino

    0.0 1h 40m 2020

    Descargar Sola (2020) HD 1080p Latino. Una mujer viuda que viaja sola es secuestrada por un asesino a...

    Director: John Hyams

    Género: Drama

    Actores: Shelly Lipkin

  • Sola (2020) REMUX 1080p Latino

    Sola (2020) REMUX 1080p Latino

    2020
    Sola (2020) REMUX 1080p Latino

    5.0 1h 40m 2020

    Descargar Sola (2020) REMUX 1080p Latino. Una mujer viuda que viaja sola es secuestrada por un asesino...

    Director: John Hyams

    Género: Drama

    Actores: Shelly Lipkin

  • La Red De Corrupcion (2019) HD 1080p Latino

    La Red De Corrupcion (2019) HD 1080p Latino

    2019
    La Red De Corrupcion (2019) HD 1080p Latino

    5.0 1h 45m 2019

    Descargar La Red De Corrupcion (2019) HD 1080p Latino. Con los Juegos Olímpicos de 2012 de Londres...

    Director: Ron Scalpello

    Género: Crimen

    Actores: Timothy Spall

  • La Red De Corrupcion (2019) REMUX 1080p Latino

    La Red De Corrupcion (2019) REMUX 1080p Latino

    2019
    La Red De Corrupcion (2019) REMUX 1080p Latino

    5.0 1h 45m 2019

    Descargar La Red De Corrupcion (2019) REMUX 1080p Latino. Con los Juegos Olímpicos de 2012 de Londres...

    Director: Ron Scalpello

    Género: Crimen

    Actores: Timothy Spall

  • Chop Chop (2020) AMZN WEB-DL 1080p Latino

    Chop Chop (2020) AMZN WEB-DL 1080p Latino

    2020
    Chop Chop (2020) AMZN WEB-DL 1080p Latino

    5.0 1h 21m 2020

    Una pareja se involucra con una banda de criminales endurecidos después de sobrevivir a un ataque de...

    Director: Rony Patel

    Género: Crimen

    Actores: Jake Taylor

Peaky Blinders (2017) Cuarta Temporada REMUX 1080p Latino – CMHDD pelicula full hd, Peaky Blinders (2017) Cuarta Temporada REMUX 1080p Latino – CMHDD mega latino, Peaky Blinders (2017) Cuarta Temporada REMUX 1080p Latino – CMHDD 4k latino, Peaky Blinders (2017) Cuarta Temporada REMUX 1080p Latino – CMHDD pelicula completa, Peaky Blinders (2017) Cuarta Temporada REMUX 1080p Latino – CMHDD descargar gratis, descargar Peaky Blinders (2017) Cuarta Temporada REMUX 1080p Latino – CMHDD pelicula latino, Peaky Blinders (2017) Cuarta Temporada REMUX 1080p Latino – CMHDD 1 link mega, Peaky Blinders (2017) Cuarta Temporada REMUX 1080p Latino – CMHDD 1 link google drive, Peaky Blinders (2017) Cuarta Temporada REMUX 1080p Latino – CMHDD hd 1080p latino.
Comentarios 0