×

¿Problemas para descargar con Mozilla, EDGE? Deshabilita la opción "Abrir vinculos en una pestaña nueva" tal como lo muestra ésta imagen.

Peaky Blinders (2016) Tercera Temporada REMUX 1080p Latino – CMHDD

203 vistas

Información de Peaky Blinders (2016) Tercera Temporada REMUX 1080p Latino – CMHDD

Datos de la película

  • Calidad: Full 1080p
  • Audio: Se especifica abajo de la Sinopsis
  • Subtitulos: Español Latino SRT
  • Resolución: 1920x1080p
  • Formato: MKV
  • Codec: H.264
  • Encoder: Dracarys
  • Mediainfo: Clic para Mostrar Datos Ver
  • Format                      : Matroska
    Format version              : Version 4
    File size                   : 11.8 GiB
    Duration                    : 55 min 52 s
    Overall bit rate mode       : Variable
    Overall bit rate            : 30.2 Mb/s
    Movie name                  : Peaky Blinders (2016) [S03E01] REMUX 1080p Latino - CMHDD
    Encoded date                : UTC 2021-02-16 21:53:51
    Writing application         : mkvmerge v51.0.0 ('I Wish') 64-bit
    Writing library             : libebml v1.4.0 + libmatroska v1.6.2

    Video
    ID                          : 1
    Format                      : AVC
    Format/Info                 : Advanced Video Codec
    Format profile              : High@L4.1
    Format settings             : CABAC / 4 Ref Frames
    Format settings, CABAC      : Yes
    Format settings, Reference  : 4 frames
    Codec ID                    : V_MPEG4/ISO/AVC
    Duration                    : 55 min 42 s
    Bit rate mode               : Variable
    Bit rate                    : 27.8 Mb/s
    Maximum bit rate            : 33.0 Mb/s
    Width                       : 1 920 pixels
    Height                      : 1 080 pixels
    Display aspect ratio        : 16:9
    Frame rate mode             : Constant
    Frame rate                  : 25.000 FPS
    Color space                 : YUV
    Chroma subsampling          : 4:2:0
    Bit depth                   : 8 bits
    Scan type                   : MBAFF
    Scan type, store method     : Interleaved fields
    Scan order                  : Top Field First
    Bits/(Pixel*Frame)          : 0.537
    Stream size                 : 10.8 GiB (92%)
    Default                     : Yes
    Forced                      : No

    Audio #1
    ID                          : 2
    Format                      : AC-3
    Format/Info                 : Audio Coding 3
    Commercial name             : Dolby Digital
    Codec ID                    : A_AC3
    Duration                    : 55 min 52 s
    Bit rate mode               : Constant
    Bit rate                    : 640 kb/s
    Channel(s)                  : 6 channels
    Channel layout              : L R C LFE Ls Rs
    Sampling rate               : 48.0 kHz
    Frame rate                  : 31.250 FPS (1536 SPF)
    Compression mode            : Lossy
    Stream size                 : 256 MiB (2%)
    Language                    : Spanish
    Service kind                : Complete Main
    Default                     : Yes
    Forced                      : No

    Audio #2
    ID                          : 3
    Format                      : DTS XLL
    Format/Info                 : Digital Theater Systems
    Commercial name             : DTS-HD Master Audio
    Codec ID                    : A_DTS
    Duration                    : 55 min 42 s
    Bit rate mode               : Variable
    Bit rate                    : 1 830 kb/s
    Channel(s)                  : 6 channels
    Channel layout              : C L R Ls Rs LFE
    Sampling rate               : 48.0 kHz
    Frame rate                  : 93.750 FPS (512 SPF)
    Bit depth                   : 16 bits
    Compression mode            : Lossless
    Stream size                 : 729 MiB (6%)
    Language                    : English
    Default                     : No
    Forced                      : No

    Text #1
    ID                          : 4
    Format                      : UTF-8
    Codec ID                    : S_TEXT/UTF8
    Codec ID/Info               : UTF-8 Plain Text
    Duration                    : 54 min 20 s
    Bit rate                    : 0 b/s
    Count of elements           : 3
    Stream size                 : 106 Bytes (0%)
    Language                    : Spanish
    Default                     : Yes
    Forced                      : No

    Text #2
    ID                          : 5
    Format                      : UTF-8
    Codec ID                    : S_TEXT/UTF8
    Codec ID/Info               : UTF-8 Plain Text
    Duration                    : 54 min 43 s
    Bit rate                    : 47 b/s
    Count of elements           : 608
    Stream size                 : 19.0 KiB (0%)
    Language                    : Spanish
    Default                     : No
    Forced                      : No

    Menu
    00:00:00.000                : en:Chapter 1
    00:08:23.400                : en:Chapter 2
    00:19:11.120                : en:Chapter 3
    00:29:14.400                : en:Chapter 4
    00:40:48.640                : en:Chapter 5
    00:49:48.360                : en:Chapter 6

  • Peso: 72.2 GiB

Sinopsis

Tras el final de la segunda temporada, el clan de los Shelby se ve completamente asentado en el negocio y tranquilo, preocupándose por cosas cotidianas: una boda, hijos… Esto es así hasta que hacen un trato con las personas equivocadas: los rusos. Tommy se verá en más peligro que nunca, con unos enemigos que no amenazan su vida, sino la de su mujer y su hijo.

 

Latino: AC3 5.1  –  Ingles: DTS-HD MA 5.1

Ficha técnica

Video trailer de la película

Enlaces de descarga

Rip de Bluray

Descargar Peaky Blinders (2016) Tercera Temporada REMUX 1080p Latino – CMHDD


Aportes de DPeliculasHDmega la pass es:dpeliculashdmega.org Aportes de CinemaniaHD la pass es:cinemaniahdd.com
Guardado en : Crimen , Drama

Películas relacionadas

  • Paradise Highway (2022) HD 1080p Latino

    Paradise Highway (2022) HD 1080p Latino

    2022
    Paradise Highway (2022) HD 1080p Latino

    1h 55m 2022

    Descargar Paradise Highway (2022) HD 1080p Latino. Un camionero se ha visto obligado a pasar de contrabando...

    Director: Anna Gutto

    Género: Crimen

    Actores: Xavier Scott Evans

  • Paradise Highway (2022) PLACEBO Full HD 1080p Latino

    Paradise Highway (2022) PLACEBO Full HD 1080p Latino

    2022
    Paradise Highway (2022) PLACEBO Full HD 1080p Latino

    1h 55m 2022

    Descargar Paradise Highway (2022) PLACEBO Full HD 1080p Latino. Un camionero se ha visto obligado a pasar...

    Director: Anna Gutto

    Género: Crimen

    Actores: Xavier Scott Evans

  • Paradise Highway (2022) REMUX 1080p Latino

    Paradise Highway (2022) REMUX 1080p Latino

    2022
    Paradise Highway (2022) REMUX 1080p Latino

    1h 55m 2022

    Descargar Paradise Highway (2022) REMUX 1080p Latino. Un camionero se ha visto obligado a pasar de contrabando...

    Director: Anna Gutto

    Género: Crimen

    Actores: Xavier Scott Evans

descargar Peaky Blinders (2016) Tercera Temporada REMUX 1080p Latino – CMHDD Full 1080p 1080p gratis, Peaky Blinders (2016) Tercera Temporada REMUX 1080p Latino – CMHDD Full 1080p mega 1 link, Peaky Blinders (2016) Tercera Temporada REMUX 1080p Latino – CMHDD Full 1080p pelicula completa, descargar Peaky Blinders (2016) Tercera Temporada REMUX 1080p Latino – CMHDD Full 1080p gratis en mega.

Peaky Blinders (2016) Tercera Temporada REMUX 1080p Latino – CMHDD pelicula full hd, Peaky Blinders (2016) Tercera Temporada REMUX 1080p Latino – CMHDD mega latino, Peaky Blinders (2016) Tercera Temporada REMUX 1080p Latino – CMHDD 4k latino, Peaky Blinders (2016) Tercera Temporada REMUX 1080p Latino – CMHDD pelicula completa, Peaky Blinders (2016) Tercera Temporada REMUX 1080p Latino – CMHDD descargar gratis, descargar Peaky Blinders (2016) Tercera Temporada REMUX 1080p Latino – CMHDD pelicula latino, Peaky Blinders (2016) Tercera Temporada REMUX 1080p Latino – CMHDD 1 link mega, Peaky Blinders (2016) Tercera Temporada REMUX 1080p Latino – CMHDD 1 link google drive, Peaky Blinders (2016) Tercera Temporada REMUX 1080p Latino – CMHDD hd 1080p latino.
Comentarios 0