×

¿Problemas para descargar con Mozilla, EDGE? Deshabilita la opción "Abrir vinculos en una pestaña nueva" tal como lo muestra ésta imagen.

Peaky Blinders (2014) Segunda Temporada REMUX 1080p Latino – CMHDD

283 vistas

Información de Peaky Blinders (2014) Segunda Temporada REMUX 1080p Latino – CMHDD

Datos de la película

  • Calidad: Full 1080p
  • Audio: Se especifica abajo de la Sinopsis
  • Subtitulos: Español Latino SRT- FORZADOS SRT
  • Resolución: 1920x1080p
  • Formato: MKV
  • Codec: H.264
  • Encoder: Dracarys
  • Mediainfo: Clic para Mostrar Datos Ver
  • Format                      : Matroska
    Format version              : Version 4
    File size                   : 12.8 GiB
    Duration                    : 59 min 6 s
    Overall bit rate mode       : Variable
    Overall bit rate            : 31.0 Mb/s
    Movie name                  : Peaky Blinders (2014) [S02E01] REMUX 1080p Latino - CMHDD
    Encoded date                : UTC 2021-02-08 03:10:00
    Writing application         : mkvmerge v51.0.0 ('I Wish') 64-bit
    Writing library             : libebml v1.4.0 + libmatroska v1.6.2

    Video
    ID                          : 1
    Format                      : AVC
    Format/Info                 : Advanced Video Codec
    Format profile              : High@L4.1
    Format settings             : CABAC / 4 Ref Frames
    Format settings, CABAC      : Yes
    Format settings, Reference  : 4 frames
    Codec ID                    : V_MPEG4/ISO/AVC
    Duration                    : 58 min 55 s
    Bit rate mode               : Variable
    Bit rate                    : 29.3 Mb/s
    Maximum bit rate            : 33.0 Mb/s
    Width                       : 1 920 pixels
    Height                      : 1 080 pixels
    Display aspect ratio        : 16:9
    Frame rate mode             : Constant
    Frame rate                  : 25.000 FPS
    Color space                 : YUV
    Chroma subsampling          : 4:2:0
    Bit depth                   : 8 bits
    Scan type                   : MBAFF
    Scan type, store method     : Interleaved fields
    Scan order                  : Top Field First
    Bits/(Pixel*Frame)          : 0.566
    Stream size                 : 12.1 GiB (94%)
    Default                     : Yes
    Forced                      : No

    Audio #1
    ID                          : 2
    Format                      : AC-3
    Format/Info                 : Audio Coding 3
    Commercial name             : Dolby Digital
    Codec ID                    : A_AC3
    Duration                    : 59 min 6 s
    Bit rate mode               : Constant
    Bit rate                    : 192 kb/s
    Channel(s)                  : 2 channels
    Channel layout              : L R
    Sampling rate               : 48.0 kHz
    Frame rate                  : 31.250 FPS (1536 SPF)
    Compression mode            : Lossy
    Stream size                 : 81.2 MiB (1%)
    Language                    : Spanish
    Service kind                : Complete Main
    Default                     : Yes
    Forced                      : No

    Audio #2
    ID                          : 3
    Format                      : DTS XLL
    Format/Info                 : Digital Theater Systems
    Commercial name             : DTS-HD Master Audio
    Codec ID                    : A_DTS
    Duration                    : 58 min 55 s
    Bit rate mode               : Variable
    Bit rate                    : 1 624 kb/s
    Channel(s)                  : 2 channels
    Channel layout              : L R
    Sampling rate               : 48.0 kHz
    Frame rate                  : 93.750 FPS (512 SPF)
    Bit depth                   : 16 bits
    Compression mode            : Lossless
    Stream size                 : 684 MiB (5%)
    Language                    : English
    Default                     : No
    Forced                      : No

    Text #1
    ID                          : 4
    Format                      : UTF-8
    Codec ID                    : S_TEXT/UTF8
    Codec ID/Info               : UTF-8 Plain Text
    Duration                    : 57 min 8 s
    Bit rate                    : 0 b/s
    Count of elements           : 7
    Stream size                 : 158 Bytes (0%)
    Language                    : Spanish
    Default                     : Yes
    Forced                      : No

    Text #2
    ID                          : 5
    Format                      : UTF-8
    Codec ID                    : S_TEXT/UTF8
    Codec ID/Info               : UTF-8 Plain Text
    Duration                    : 58 min 9 s
    Bit rate                    : 49 b/s
    Count of elements           : 668
    Stream size                 : 21.0 KiB (0%)
    Language                    : Spanish
    Default                     : No
    Forced                      : No

  • Peso: 77.5 GiB Total

Sinopsis

Thomas Shelby, líder de la banda de los Peaky Blinders, se hace con un cargamento de armas de la fábrica local. Thomas quiere tener dichas armas para así poder aumentar el poder de su banda, aunque su tía le pide que se deshaga de ellas. Su sueño, tener un negocio legal de carreras de caballos, y el acercarse a el único hombre (Billy Kimber) que puede ayudarle a conseguirlo le crea numerosos conflictos. Por otro lado, a Brimingham llega un detective de Belfast con un objetivo. Este detective, llamado Chester Campbel, quiere terminar con las bandas violentas que hacen lo que quieren en la ciudad.

 

Latino: AC3 2.0  –  Ingles: DTS-HD MA 2.0

Ficha técnica

Video trailer de la película

Enlaces de descarga

Rip de Bluray

Descargar Peaky Blinders (2014) Segunda Temporada REMUX 1080p Latino – CMHDD


Aportes de DPeliculasHDmega la pass es:dpeliculashdmega.org Aportes de CinemaniaHD la pass es:cinemaniahdd.com
Guardado en : Crimen , Drama

Películas relacionadas

  • El discurso del Rey (2010) 1080p Latino

    El discurso del Rey (2010) 1080p Latino

    2010
    El discurso del Rey (2010) 1080p Latino

    1h 58m 2010

    Descargar El discurso del Rey (2010) 1080p Latino. El duque de York se convirtió en rey de Gran Bretaña...

    Director: Tom Hooper

    Género: Drama

    Actores: Tony Earnshaw

  • El discurso del Rey (2010) Full HD 1080p Latino

    El discurso del Rey (2010) Full HD 1080p Latino

    2010
    El discurso del Rey (2010) Full HD 1080p Latino

    1h 58m 2010

    Descargar El discurso del Rey (2010) Full HD 1080p Latino. El duque de York se convirtió en rey de Gran...

    Director: Tom Hooper

    Género: Drama

    Actores: Tony Earnshaw

  • El discurso del Rey (2010) REMUX 1080p Latino

    El discurso del Rey (2010) REMUX 1080p Latino

    2010
    El discurso del Rey (2010) REMUX 1080p Latino

    1h 58m 2010

    Descargar El discurso del Rey (2010) REMUX 1080p Latino. El duque de York se convirtió en rey de Gran...

    Director: Tom Hooper

    Género: Drama

    Actores: Tony Earnshaw

  • 8 Mile (2002) REMUX 4K HDR Latino – CMHDD

    8 Mile (2002) REMUX 4K HDR Latino – CMHDD

    2002
    8 Mile (2002) REMUX 4K HDR Latino – CMHDD

    1h 50m 2002

    Detroit, 1995. La promesa de potencia industrial se ha transformado en un hervidero de conflictos económicos...

    Director: Michael J. Moore

    Género: Drama

    Actores: Xzibit

descargar Peaky Blinders (2014) Segunda Temporada REMUX 1080p Latino – CMHDD Full 1080p 1080p gratis, Peaky Blinders (2014) Segunda Temporada REMUX 1080p Latino – CMHDD Full 1080p mega 1 link, Peaky Blinders (2014) Segunda Temporada REMUX 1080p Latino – CMHDD Full 1080p pelicula completa, descargar Peaky Blinders (2014) Segunda Temporada REMUX 1080p Latino – CMHDD Full 1080p gratis en mega.

Peaky Blinders (2014) Segunda Temporada REMUX 1080p Latino – CMHDD pelicula full hd, Peaky Blinders (2014) Segunda Temporada REMUX 1080p Latino – CMHDD mega latino, Peaky Blinders (2014) Segunda Temporada REMUX 1080p Latino – CMHDD 4k latino, Peaky Blinders (2014) Segunda Temporada REMUX 1080p Latino – CMHDD pelicula completa, Peaky Blinders (2014) Segunda Temporada REMUX 1080p Latino – CMHDD descargar gratis, descargar Peaky Blinders (2014) Segunda Temporada REMUX 1080p Latino – CMHDD pelicula latino, Peaky Blinders (2014) Segunda Temporada REMUX 1080p Latino – CMHDD 1 link mega, Peaky Blinders (2014) Segunda Temporada REMUX 1080p Latino – CMHDD 1 link google drive, Peaky Blinders (2014) Segunda Temporada REMUX 1080p Latino – CMHDD hd 1080p latino.
Comentarios 0